A PHP Error was encountered

Severity: Notice

Message: Trying to get property 'id' of non-object

Filename: controllers/Torrent.php

Line Number: 25

Backtrace:

File: /home/torr/www/application/controllers/Torrent.php
Line: 25
Function: _error_handler

File: /home/torr/www/public/index.php
Line: 317
Function: require_once

Реальный Рокки / Чак / The Bleeder / Chuck (2016) BDRip-AVC | P | 2.2 Гб - ToRR.ws

Подождите, загружаю...

Все раздачи Раздачи по тегам Правила Информация Контакты

Реальный Рокки / Чак / The Bleeder / Chuck (2016) BDRip-AVC | P

Реальный Рокки / Чак / The Bleeder / Chuck (2016) BDRip-AVC | P

Информация о фильме
Название: Реальный Рокки
Оригинальное название: Chuck
Год выхода: 2016
Жанр: драма, биография, спорт
Режиссер: Филипп Фалардо
В ролях: Элизабет Мосс, Наоми Уоттс, Лив Шрайбер, Рон Перлман, Майкл Рапапорт, Сэди Синк, Морган Спектор, Пуч Холл, Джим Гэффиган, Джейсон Джонс
О фильме: История о боксере-тяжеловесе Чаке Уэпнере, жизнь которого резко изменилась после победы над легендарным Мохаммедом Али. Какой-то Сталлоне написал сценарий на основе его жизни, и Чак вошел в историю как прототип Рокки Бальбоа. Он любил жизнь, азартные игры и женщин, и ни за что не хотел отказываться от славы.

Страна: США
Студия: Millenium Films
Campbell-Grobman Films
Mike Tollin Productions
Продолжительность: 01:38:24
Перевод: Профессиональный (многоголосый закадровый)
Файл
Качество: BDRip-AVC [Исходник: Blu-ray Disc | 1080p]
Видео кодек: AVC
Формат: MKV
Аудио кодек: AC3
Видео: AVC, 1152x622 (1.852), 23.976 fps, 2 600 Kbps (0.151 bit/pixel)
Звук: AC-3, 48.0 KHz, 2 ch, 192 Kbps [RU]
Звук: AC-3, 48.0 KHz, 6 ch, 384 Kbps [EN]
MediaInfo:
General
Unique ID : 212768844086823277523610315131106137934 (0xA011C9EF2FC21E74B3D7AA73320C974E)
Complete name : D:Dalinami torentaiChuck.2016.BDRip.AVC.AC3.EN.RU-GHOST.mkv
Format : Matroska
Format version : Version 4 / Version 2
File size : 2.18 GiB
Duration : 1 h 38 min
Overall bit rate : 3 177 kb/s
Movie name : GHOST
Encoded date : UTC 2017-11-12 15:26:48
Writing application : mkvmerge v9.2.0 ('Photograph') 64bit
Writing library : libebml v1.3.3 + libmatroska v1.4.4
Video
ID : 1
Format : AVC
Format/Info : Advanced Video Codec
Format profile : High@L4.1
Format settings, CABAC : Yes
Format settings, ReFrames : 11 frames
Codec ID : V_MPEG4/ISO/AVC
Duration : 1 h 38 min
Bit rate : 2 600 kb/s
Width : 1 152 pixels
Height : 622 pixels
Display aspect ratio : 1.85:1
Frame rate mode : Constant
Frame rate : 23.976 (24000/1001) FPS
Color space : YUV
Chroma subsampling : 4:2:0
Bit depth : 8 bits
Scan type : Progressive
Bits/(Pixel*Frame) : 0.151
Stream size : 1.79 GiB (82%)
Writing library : x264 core 152 r2851M ba24899
Encoding settings : cabac=1 / ref=11 / deblock=1:-3:-3 / analyse=0x3:0x133 / me=umh / subme=11 / psy=1 / psy_rd=1.00:0.20 / mixed_ref=1 / me_range=32 / chroma_me=1 / trellis=2 / 8x8dct=1 / cqm=0 / deadzone=21,11 / fast_pskip=1 / chroma_qp_offset=-3 / threads=12 / lookahead_threads=3 / sliced_threads=0 / nr=0 / decimate=1 / interlaced=0 / bluray_compat=0 / constrained_intra=0 / bframes=11 / b_pyramid=2 / b_adapt=2 / b_bias=0 / direct=3 / weightb=1 / open_gop=0 / weightp=2 / keyint=240 / keyint_min=24 / scenecut=40 / intra_refresh=0 / rc_lookahead=40 / rc=2pass / mbtree=1 / bitrate=2600 / ratetol=1.0 / qcomp=0.60 / qpmin=10 / qpmax=69 / qpstep=4 / cplxblur=20.0 / qblur=0.5 / ip_ratio=1.40 / aq=1:1.00
Default : Yes
Forced : No
Audio #1
ID : 2
Format : AC-3
Format/Info : Audio Coding 3
Format settings, Endianness : Big
Codec ID : A_AC3
Duration : 1 h 38 min
Bit rate mode : Constant
Bit rate : 192 kb/s
Channel(s) : 2 channels
Channel positions : Front: L R
Sampling rate : 48.0 kHz
Frame rate : 31.250 FPS (1536 spf)
Bit depth : 16 bits
Compression mode : Lossy
Stream size : 135 MiB (6%)
Language : Russian
Service kind : Complete Main
Default : Yes
Forced : No
Audio #2
ID : 3
Format : AC-3
Format/Info : Audio Coding 3
Format settings, Endianness : Big
Codec ID : A_AC3
Duration : 1 h 38 min
Bit rate mode : Constant
Bit rate : 384 kb/s
Channel(s) : 6 channels
Channel positions : Front: L C R, Side: L R, LFE
Sampling rate : 48.0 kHz
Frame rate : 31.250 FPS (1536 spf)
Bit depth : 16 bits
Compression mode : Lossy
Stream size : 270 MiB (12%)
Language : English
Service kind : Complete Main
Default : No
Forced : No
Скриншоты

Релиз от: stallkerr82
Автор Bot
Категория Зарубежные фильмы
InfoHash DC38E6FF3937B5C0583A259C62EBF8B360DDFBBE
Файлы (1)
Показать файлы
Трекера
Показать трекера
Похожие раздачи

    Нет комментариев

Войти на сайт

Статистика

  • Всего торрентов: 74836
  • Объёмом: 431.7 Тб
  • Сидов: 2001182
  • Личеров: 174240