Подождите, загружаю...

Все раздачи Раздачи по тегам Правила Информация Контакты

Приказано уничтожить / Executive Decision (1996) BDRip 720p | D, P, P2, A

Приказано уничтожить / Executive Decision (1996) BDRip 720p | D, P, P2, A

Информация о фильме
✧ Название: Приказано уничтожить
✧ Оригинальное название: Executive Decision
✧ Год выхода: 1996
Жанр: боевик, триллер, приключения
✧ Выпущено: США, Silver Pictures, Warner Bros. Pictures
✧ Продолжительность: 02:12:41
✧ Перевод: Дублированный, профессиональный многоголосый, профессиональный двухголосый, авторский одноголосый
✧ Режиссер: Стюарт Бейрд
✧ В ролях: Курт Рассел, Стивен Сигал, Холли Берри, Дэвид Суше, Джон Легуизамо, Оливер Плэтт, Джо Мортон, Б.Д. Вонг, Лен Кариу
✧ О фильме:
В воздухе террористами захвачен "Боинг" с пассажирами на борту. Они требуют освободить из тюрьмы их лидера. Группе специального назначения предстоит найти и обезвредить находящуюся на боевом взводе бомбу, способную уничтожить всё население восточных прибрежных штатов. Задача усложняется ещё и тем, что всю операцию предстоит сделать скрытно и в отсутствии радиосвязи с землёй.

Файл
✧ Качество: BDRip 720p
✧ Видео: MPEG-4 AVC, 1280x534 (2.40:1), 23.976 fps, 6594 Kbps
✧ Аудио 1: Russian: AC3 / 5.1 / 48 kHz / 384 kbps - DUB, R5
✧ Аудио 2: Russian: AC3 / 2.0 / 48 kHz / 192 kbps - DUB, Варус Видео
✧ Аудио 3: Russian: AC3 / 2.0 / 48 kHz / 192 kbps - MVO, ТК Россия
✧ Аудио 4: Russian: AC3 / 2.0 / 48 kHz / 192 kbps - DVO, НТВ
✧ Аудио 5: Russian: DTS / 5.1 / 48 kHz / 1510 kbps - AVO, А. Гаврилов
✧ Аудио 6: Russian: AC3 / 2.0 / 48 kHz / 192 kbps - AVO, С. Визгунов
✧ Аудио 7: Ukrainian: AC3 / 5.1 / 48 kHz / 384 kbps - MVO, К1
✧ Аудио 8: English: AC3 / 5.1 / 48 kHz / 640 kbps - Оригинал
✧ Субтитры: Русские, английские
✧ Навигация по главам: есть
Скриншоты


MediaInfo
Общее
Уникальный идентификатор : 172372638583547253120747496738468579525 (0x81ADC33B556844FD99EA069D152EC8C5)
Полное имя : Executive.Decision.1996.BDRip.720p.mkv
Формат : Matroska
Версия формата : Version 2
Размер файла : 9,53 Гбайт
Продолжительность : 2 ч. 12 м.
Общий поток : 10,3 Мбит/сек
Название фильма : Executive.Decision.1996.BDRip.720p
Дата кодирования : UTC 2017-11-13 13:50:53
Программа кодирования : mkvmerge v5.8.0 ('No Sleep / Pillow') built on Sep 2 2012 15:37:04
Библиотека кодирования : libebml v1.2.3 + libmatroska v1.3.0
Видео
Идентификатор : 1
Формат : AVC
Формат/Информация : Advanced Video Codec
Профиль формата : High@L4.1
Параметр CABAC формата : Да
Параметр RefFrames формата : 12 кадров
Идентификатор кодека : V_MPEG4/ISO/AVC
Продолжительность : 2 ч. 12 м.
Битрейт : 6594 Кбит/сек
Ширина : 1280 пикселей
Высота : 534 пикселя
Соотношение сторон : 2,40:1
Режим частоты кадров : Постоянный
Частота кадров : 23,976 кадра/сек
Цветовое пространство : YUV
Субдискретизация насыщенности : 4:2:0
Битовая глубина : 8 бит
Тип развёртки : Прогрессивная
Бит/(Пиксели*Кадры) : 0.402
Размер потока : 5,92 Гбайт (62%)
Заголовок : Executive Decision (1996)
Библиотека кодирования : x264 core 116 r2057 0ba8a9c
Настройки программы : cabac=1 / ref=12 / deblock=1:-3:-3 / analyse=0x3:0x113 / me=umh / subme=10 / psy=1 / psy_rd=1.05:0.10 / mixed_ref=1 / me_range=32 / chroma_me=1 / trellis=2 / 8x8dct=1 / cqm=2 / deadzone=21,11 / fast_pskip=0 / chroma_qp_offset=-2 / threads=12 / sliced_threads=0 / nr=0 / decimate=1 / interlaced=0 / bluray_compat=0 / constrained_intra=0 / bframes=6 / b_pyramid=2 / b_adapt=2 / b_bias=0 / direct=3 / weightb=1 / open_gop=0 / weightp=2 / keyint=250 / keyint_min=23 / scenecut=40 / intra_refresh=0 / rc_lookahead=40 / rc=2pass / mbtree=1 / bitrate=6594 / ratetol=1.0 / qcomp=0.60 / qpmin=1 / qpmax=63 / qpstep=4 / cplxblur=20.0 / qblur=0.5 / vbv_maxrate=40000 / vbv_bufsize=30000 / nal_hrd=none / ip_ratio=1.40 / aq=2:1.00
Язык : English
Default : Да
Forced : Нет
Аудио #1
Идентификатор : 2
Формат : AC-3
Формат/Информация : Audio Coding 3
Параметр Endianness формата : Big
Идентификатор кодека : A_AC3
Продолжительность : 2 ч. 12 м.
Вид битрейта : Постоянный
Битрейт : 384 Кбит/сек
Каналы : 6 каналов
Расположение каналов : Front: L C R, Side: L R, LFE
Частота : 48,0 КГц
Частота кадров : 31,250 кадров/сек (1536 SPF)
Битовая глубина : 16 бит
Метод сжатия : С потерями
Размер потока : 364 Мбайт (4%)
Заголовок : Dub R5
Язык : Russian
Default : Да
Forced : Нет
Аудио #2
Идентификатор : 3
Формат : AC-3
Формат/Информация : Audio Coding 3
Параметр Endianness формата : Big
Идентификатор кодека : A_AC3
Продолжительность : 2 ч. 12 м.
Вид битрейта : Постоянный
Битрейт : 192 Кбит/сек
Каналы : 2 канала
Расположение каналов : Front: L R
Частота : 48,0 КГц
Частота кадров : 31,250 кадров/сек (1536 SPF)
Битовая глубина : 16 бит
Метод сжатия : С потерями
Размер потока : 182 Мбайт (2%)
Заголовок : Dub Varus
Язык : Russian
Default : Нет
Forced : Нет
Аудио #3
Идентификатор : 4
Формат : AC-3
Формат/Информация : Audio Coding 3
Параметр Endianness формата : Big
Идентификатор кодека : A_AC3
Продолжительность : 2 ч. 12 м.
Вид битрейта : Постоянный
Битрейт : 192 Кбит/сек
Каналы : 2 канала
Расположение каналов : Front: L R
Частота : 48,0 КГц
Частота кадров : 31,250 кадров/сек (1536 SPF)
Битовая глубина : 16 бит
Метод сжатия : С потерями
Размер потока : 182 Мбайт (2%)
Заголовок : MVO TK Russia
Язык : Russian
Default : Нет
Forced : Нет
Аудио #4
Идентификатор : 5
Формат : AC-3
Формат/Информация : Audio Coding 3
Параметр Endianness формата : Big
Идентификатор кодека : A_AC3
Продолжительность : 2 ч. 12 м.
Вид битрейта : Постоянный
Битрейт : 192 Кбит/сек
Каналы : 2 канала
Расположение каналов : Front: L R
Частота : 48,0 КГц
Частота кадров : 31,250 кадров/сек (1536 SPF)
Битовая глубина : 16 бит
Метод сжатия : С потерями
Размер потока : 182 Мбайт (2%)
Заголовок : DVO NTV
Язык : Russian
Default : Нет
Forced : Нет
Аудио #5
Идентификатор : 6
Формат : DTS
Формат/Информация : Digital Theater Systems
Режим : 16
Параметр Endianness формата : Big
Идентификатор кодека : A_DTS
Продолжительность : 2 ч. 12 м.
Вид битрейта : Постоянный
Битрейт : 1510 Кбит/сек
Каналы : 6 каналов
Расположение каналов : Front: L C R, Side: L R, LFE
Частота : 48,0 КГц
Частота кадров : 93,750 кадра/сек (512 SPF)
Битовая глубина : 24 бит
Метод сжатия : С потерями
Размер потока : 1,40 Гбайт (15%)
Заголовок : AVO Gavrilov
Язык : Russian
Default : Нет
Forced : Нет
Аудио #6
Идентификатор : 7
Формат : AC-3
Формат/Информация : Audio Coding 3
Параметр Endianness формата : Big
Идентификатор кодека : A_AC3
Продолжительность : 2 ч. 12 м.
Вид битрейта : Постоянный
Битрейт : 192 Кбит/сек
Каналы : 2 канала
Расположение каналов : Front: L R
Частота : 48,0 КГц
Частота кадров : 31,250 кадров/сек (1536 SPF)
Битовая глубина : 16 бит
Метод сжатия : С потерями
Размер потока : 182 Мбайт (2%)
Заголовок : AVO Vizgunov
Язык : Russian
Default : Нет
Forced : Нет
Аудио #7
Идентификатор : 8
Формат : AC-3
Формат/Информация : Audio Coding 3
Параметр Endianness формата : Big
Идентификатор кодека : A_AC3
Продолжительность : 2 ч. 12 м.
Вид битрейта : Постоянный
Битрейт : 384 Кбит/сек
Каналы : 6 каналов
Расположение каналов : Front: L C R, Side: L R, LFE
Частота : 48,0 КГц
Частота кадров : 31,250 кадров/сек (1536 SPF)
Битовая глубина : 16 бит
Метод сжатия : С потерями
Размер потока : 364 Мбайт (4%)
Заголовок : MVO K1
Язык : Ukrainian
Default : Нет
Forced : Нет
Аудио #8
Идентификатор : 9
Формат : AC-3
Формат/Информация : Audio Coding 3
Параметр Endianness формата : Big
Идентификатор кодека : A_AC3
Продолжительность : 2 ч. 12 м.
Вид битрейта : Постоянный
Битрейт : 640 Кбит/сек
Каналы : 6 каналов
Расположение каналов : Front: L C R, Side: L R, LFE
Частота : 48,0 КГц
Частота кадров : 31,250 кадров/сек (1536 SPF)
Битовая глубина : 16 бит
Метод сжатия : С потерями
Размер потока : 607 Мбайт (6%)
Заголовок : Original
Язык : English
Default : Нет
Forced : Нет
Текст #1
Идентификатор : 10
Формат : UTF-8
Идентификатор кодека : S_TEXT/UTF8
Идентификатор кодека/Информация : UTF-8 Plain Text
Язык : Russian
Default : Нет
Forced : Нет
Текст #2
Идентификатор : 11
Формат : UTF-8
Идентификатор кодека : S_TEXT/UTF8
Идентификатор кодека/Информация : UTF-8 Plain Text
Язык : English
Default : Нет
Forced : Нет
Меню
00:00:00.000 : en:Credits, Mission In Trieste
00:04:51.666 : en:Ready To Solo?
00:06:45.822 : en:Abduction In Cyprus
00:10:06.939 : en:Fireworks In London
00:10:51.609 : en:Taking Over Flight 343
00:14:42.172 : en:Brave And Totally Unnecessary
00:16:51.635 : en:Grant's Theory: Revenge
00:22:37.230 : en:Ready For A Plan Ride?
00:25:40.497 : en:The Remora F117X
00:32:36.955 : en:Link Established
00:39:31.035 : en:Fatal Turbulence
00:44:33.379 : en:The Co-Pilot's Inspection
00:49:23.251 : en:Sometime For Strategy
00:53:17.611 : en:Installing Eyes And Ears
00:59:28.606 : en:Looking For Nagi Hassan
01:03:58.835 : en:Vanishing Act
01:07:04.395 : en:Sen. Mavro's Request
01:08:10.252 : en:A Bigger Target Than Thought
01:10:50.621 : en:"What Do You Want Me To Do?"
01:14:51.236 : en:Siege Aloft
01:20:16.978 : en:On The Way To A Glorious Victory
01:22:18.391 : en:The Vengeance Of Allah
01:24:41.117 : enraspberryhone Call To A Player
01:31:11.841 : en:Target Identified
01:34:18.944 : en:Close Calls
01:41:14.401 : en:Mavros Plays His Part
01:43:28.535 : en:They Get The Message
01:46:41.937 : en:The Waiting Game
01:50:02.679 : en:Grant Makes His Move
01:51:12.707 : en:The Sleeper Revealed
01:52:38.418 : en:Mayday
01:54:56.890 : en:Hassan's Final Gambit
01:56:51.963 : en:Getting Ahold Of The Plane
01:58:09.082 : en:By The Book
02:01:49.802 : en:Touchdown
02:05:22.389 : en:"As Long As You're Not Flying"
02:08:00.214 : en:End Credits
Автор Bot
Категория Зарубежные фильмы
InfoHash BBB50C998D56F3A0A58F51155B9E505BE2EBC2E2
Файлы (1)
Показать файлы
Трекера
Показать трекера
Похожие раздачи
Название Добавлен Размер Сид Лич
Приказано уничтожить / Executive Decision (1996) BDRip-HEVC 1080p | D, A 06/01/2018 7.0 Гб 2 0
Приказано уничтожить / Executive Decision (1996) HDRip | D 15/11/2017 1.5 Гб 10 0

    Нет комментариев

Войти на сайт

Статистика

  • Всего торрентов: 73670
  • Объёмом: 422.9 Тб
  • Сидов: 2092979
  • Личеров: 167047