Все раздачи Раздачи по тегам Правила Информация Контакты

Мы – монстры / Happy Family / Monster Family (2017) BDRip 1080p | 3D-Video | halfOU | iTunes

Мы – монстры / Happy Family / Monster Family (2017) BDRip 1080p | 3D-Video | halfOU | iTunes


Мы – монстры
Happy Family / Monster Family

«В семье не без монстров!»

Год выпуска: 2017
Страна: Великобритания, Германия (Timeless Films, United & Ambient Entertainment, Mack Media, Agir, Rothkirch Cartoon-Film)
Жанр: мультфильм, ужасы, комедия, семейный
Продолжительность: 01:33:03
Перевод: Профессиональный дублированный - iTunes
Режиссер: Хольгер Таппе / Holger Tappe
Роли озвучивали / дублировали: Эмили Уотсон (Emma), Джейсон Айзекс (Dracula), Ник Фрост (Frank), Джессика Браун-Финдли / Элиза Мартиросова (Fay), Селия Имри (Cheyenne), Кэтрин Тейт (Baba Yaga), Итан Раус (Max), Ивэн Бэйли (Renfield), Эмма Тейт (Head Model), Джессика МакДональд (Sheila), Дэниэл Бен Зеноу (Imhotep), Исаак Раус (Jaydon), Беттина Кенни (доп. голоса)
Описание: По воле могущественного Дракулы вся семейка Уишбоун сталкивается с «монстрическими» проблемами: мама превращается в вампира, папа — в Франкенштейна, а их дети — в мумию и оборотня. Теперь они должны сплотиться, чтобы победить повелителя тьмы и снова стать не только людьми, но и дружной семьей.
Премьера: 17 августа 2017 (26 октября 2017)
.

Качество: BDRip (by Ash61 from BD 3D Ger)
Контейнер: MKV
Формат 3D: Half OverUnder / Вертикальная анаморфная стереопара
Порядок ракурсов: левый ракурс первый
Видео: AVC / 1920х1080p / 23,976 fps / 15.0 Mbps
Аудио:
#1 - Русский / AC3 / 48 KHz / 5.1 ch / 384 Kbps (Дубляж - iTunes)
#2 - Украинский / AC3 / 48 KHz / 5.1 ch / 384 Kbps (Дубляж - iTunes)
#3 - Английский / AC3 / 48 KHz / 5.1 ch / 640 Kbps (Original - BD 3D Ger)
Субтитры (внешние SRT UTF-8): English Full (BD 3D Ger)
MediaInfo
General
Unique ID : 253576858458351623656559942118834587852 (0xBEC52061B473B16891A6347AF68A48CC)
Complete name : D:HappyFamily(2017)3D-halfOU(Ash61)iTunesHappyFamily(2017)3D-halfOU(Ash61)iTunes.mkv
Format : Matroska
Format version : Version 2
File size : 10.6 GiB
Duration : 1h 33mn
Overall bit rate : 16.4 Mbps
Encoded date : UTC 2018-04-15 09:16:22
Writing application : mkvmerge v5.8.0 ('No Sleep / Pillow') built on Sep 2 2012 15:37:04
Writing library : libebml v1.2.3 + libmatroska v1.3.0
Video
ID : 1
Format : AVC
Format/Info : Advanced Video Codec
Format profile : High@L4.1
Format settings, CABAC : Yes
Format settings, ReFrames : 4 frames
Codec ID : V_MPEG4/ISO/AVC
Duration : 1h 33mn
Bit rate : 15.0 Mbps
Width : 1 920 pixels
Height : 1 080 pixels
Display aspect ratio : 16:9
Frame rate mode : Constant
Frame rate : 23.976 (24000/1001) fps
Color space : YUV
Chroma subsampling : 4:2:0
Bit depth : 8 bits
Scan type : Progressive
Bits/(Pixel*Frame) : 0.302
Stream size : 9.51 GiB (89%)
Title : BDRip by Ash61 (from BD 3D Ger)
Writing library : x264 core 146 r2538 121396c
Encoding settings : cabac=1 / ref=4 / deblock=1:-3:-3 / analyse=0x3:0x113 / me=umh / subme=10 / psy=1 / psy_rd=1.00:0.00 / mixed_ref=1 / me_range=32 / chroma_me=1 / trellis=2 / 8x8dct=1 / cqm=0 / deadzone=21,11 / fast_pskip=0 / chroma_qp_offset=-2 / threads=12 / lookahead_threads=2 / sliced_threads=0 / nr=0 / decimate=0 / interlaced=0 / bluray_compat=0 / constrained_intra=0 / bframes=8 / b_pyramid=2 / b_adapt=2 / b_bias=0 / direct=3 / weightb=1 / open_gop=0 / weightp=2 / keyint=250 / keyint_min=23 / scenecut=40 / intra_refresh=0 / rc_lookahead=60 / rc=2pass / mbtree=0 / bitrate=15000 / ratetol=1.0 / qcomp=0.70 / qpmin=0 / qpmax=69 / qpstep=4 / cplxblur=20.0 / qblur=0.5 / vbv_maxrate=40000 / vbv_bufsize=30000 / nal_hrd=none / filler=0 / frame-packing=4 / ip_ratio=1.40 / pb_ratio=1.30 / aq=1:0.70
Language : English
Default : Yes
Forced : No
Audio #1
ID : 2
Format : AC-3
Format/Info : Audio Coding 3
Mode extension : CM (complete main)
Format settings, Endianness : Big
Codec ID : A_AC3
Duration : 1h 33mn
Bit rate mode : Constant
Bit rate : 384 Kbps
Channel(s) : 6 channels
Channel positions : Front: L C R, Side: L R, LFE
Sampling rate : 48.0 KHz
Frame rate : 31.250 fps (1536 spf)
Compression mode : Lossy
Stream size : 256 MiB (2%)
Title : Дубляж - iTunes
Language : Russian
Default : Yes
Forced : No
Audio #2
ID : 3
Format : AC-3
Format/Info : Audio Coding 3
Mode extension : CM (complete main)
Format settings, Endianness : Big
Codec ID : A_AC3
Duration : 1h 33mn
Bit rate mode : Constant
Bit rate : 384 Kbps
Channel(s) : 6 channels
Channel positions : Front: L C R, Side: L R, LFE
Sampling rate : 48.0 KHz
Frame rate : 31.250 fps (1536 spf)
Compression mode : Lossy
Stream size : 256 MiB (2%)
Title : Дубляж - iTunes
Language : Ukrainian
Default : No
Forced : No
Audio #3
ID : 4
Format : AC-3
Format/Info : Audio Coding 3
Mode extension : CM (complete main)
Format settings, Endianness : Big
Codec ID : A_AC3
Duration : 1h 33mn
Bit rate mode : Constant
Bit rate : 640 Kbps
Channel(s) : 6 channels
Channel positions : Front: L C R, Side: L R, LFE
Sampling rate : 48.0 KHz
Frame rate : 31.250 fps (1536 spf)
Compression mode : Lossy
Stream size : 426 MiB (4%)
Title : Original - BD 3D Ger
Language : English
Default : No
Forced : No
Menu
00:00:00.000 : :1
00:06:38.356 : :2
00:14:13.770 : :3
00:20:34.108 : :4
00:29:57.754 : :5
00:38:53.540 : :6
00:45:52.917 : :7
00:52:04.371 : :8
00:59:13.008 : :9
01:12:23.548 : :10
01:19:19.088 : :11
01:28:45.987 : :12
Скриншоты
Для оценки 3Д - Анимированные скрины
















Автор Bot
Категория Мультипликация
InfoHash 6962D6C5AF858AB60ED3E17E32F7A0E625B395DE
Файлы (2)
Показать файлы
Трекера
Показать трекера
Похожие раздачи

    Нет комментариев

Войти на сайт

Статистика

  • Всего торрентов: 86311
  • Объёмом: 511.5 Тб
  • Сидов: 2628454
  • Личеров: 170046