Все раздачи Раздачи по тегам Правила Информация Контакты

Спасите наши души (1960) SATRip

Спасите наши души (1960) SATRip

Страна: СССР
Производство: К/ст им. Довженко
Жанр: мелодрама, приключения
Год выпуска: 1960
Продолжительность: 01:13:49
Перевод: Не требуется
Cубтитры: нет
Оригинальная аудиодорожка: русский
Режиссер: Алексей Мишурин
В ролях:
Александр Белявский, Лидия Федосеева-Шукшина, Виктор Добровольский, Михаил Орлов, Николай Яковченко, Валерий Рудой, Наталья Малявина, Сергей Петров, Сергей Мартинсон, Юрий Прокопович, Александр Гумбург, Борис Хенкин, Наталья Наум, Александр Ануров...
Об актёрах подробней
Описание:
Судно «Запорожец» отплывает в очередной заграничный рейс. Когда судно уже находилось в открытом океане, радистка Леся Гордиенко (Лидия Федосеева) приняла радиограмму СОС с яхты, на которой была дочь английского судопромышленника Элис Мейсфилд со своим женихом Майклом Пейтоном. Отобрав у Элис спасательный пояс, Майкл бросился в воду, оставив Элис на горящей яхте. Тонущую Элис спасает Юрий Цымбалюк (Александр Белявский), курсант мореходного училища.

Исходник: DVB
Качество видео: SATRip
Формат видео: AVI
Видео: 704x512 (1,375:1), 25,000 кадров/сек, XviD ~ 1912 kbps avg, 0.157 bit/pixel
Аудио: 48 kHz, Dolby Digital AC3 2.0, 192 kbps
Раздача от:
MediaInfo

Общее
Полное имя : Spasite.nashi.dushi.1960.SATRip_[New-team]_by_AVP_Studio.avi
Формат : AVI
Формат/Информация : Audio Video Interleave
Размер файла : 1,09 Гбайт
Продолжительность : 1 ч. 13 м.
Общий поток : 2114 Кбит/сек
Программа кодирования : VirtualDubMod 1.5.10.3 | www.virtualdub-fr.org || (build 2550/release)
Библиотека кодирования : VirtualDubMod build 2550/release
Видео
Идентификатор : 0
Формат : MPEG-4 Visual
Профиль формата : Advanced Simple@L5
Настройки формата : BVOP1 / Custom Matrix
Параметр BVOP формата : 1
Параметр QPel формата : Нет
Параметр GMC формата : Без точки перехода
Параметр матрицы формата : Выборочная
Идентификатор кодека : XVID
Идентификатор кодека/Подсказка : XviD
Продолжительность : 1 ч. 13 м.
Битрейт : 1912 Кбит/сек
Ширина : 704 пикселя
Высота : 512 пикселей
Соотношение сторон : 1,375
Частота кадров : 25,000 кадров/сек
Цветовое пространство : YUV
Субдискретизация насыщенности : 4:2:0
Битовая глубина : 8 бит
Тип развёртки : Прогрессивная
Метод сжатия : С потерями
Бит/(Пиксели*Кадры) : 0.212
Размер потока : 1009 Мбайт (90%)
Библиотека кодирования : XviD 73
Аудио
Идентификатор : 1
Формат : AC-3
Формат/Информация : Audio Coding 3
Идентификатор кодека : 2000
Продолжительность : 1 ч. 13 м.
Вид битрейта : Постоянный
Битрейт : 192 Кбит/сек
Каналы : 2 канала
Расположение каналов : Front: L R
Частота : 48,0 КГц
Частота кадров : 31,250 кадров/сек (1536 SPF)
Битовая глубина : 16 бит
Метод сжатия : С потерями
Размер потока : 101 Мбайт (9%)
Выравнивание : Разделение по промежуткам
Продолжительность промежутка : 40 мс. (1,00 видеокадр)
Время предзагрузки промежутка : 500 мс

Скриншоты


Автор Bot
Категория Наши фильмы
InfoHash 32951E93E769A5C55EA760393D4EF5749498713C
Файлы (1)
Показать файлы
Трекера
Показать трекера
Похожие раздачи
Название Добавлен Размер Сид Лич
Спасите наши души (1960) SATRip-AVC 16/04/2018 1.1 Гб 3 0
Спасите наши души (1987) SATRip-AVC 12/03/2018 1.8 Гб 0 0

    Нет комментариев

Войти на сайт

Статистика

  • Всего торрентов: 86311
  • Объёмом: 511.5 Тб
  • Сидов: 2628875
  • Личеров: 170198