Подождите, загружаю...

Все раздачи Правила Информация Контакты

Убийство Джоан / Killing Joan (2018) WEB-DL 1080p

Убийство Джоан / Killing Joan (2018) WEB-DL 1080p
Страна: США
Жанр: ужасы, боевик, триллер, драма, криминал
Год выпуска: 2018
Продолжительность: 01:41:21
Перевод: Любительский (двухголосый, закадровый) [HiWay Grope]
Субтитры: английские (полные, SDH)
Оригинальная аудиодорожка: английский
Режиссер: Тодд Барту / Todd Bartoo
В ролях: Джэми Бернадетт, Teo Celigo, Эрик Од, Дэвид Кэри Фостер, Дэниэл Гарднер, Дион Баско, Pavle Kujundzic, Каспер Андреас, Катарина Уотерс, Эрин О’Брайэн, Alexandra Lemus, Дэнни Мика
Описание:
Джоан работает на местного мафиози, который известен своей безжалостностью и диким нравом. После того, как на ее жизнь покушаются ее же коллеги, героиня решает разобраться с обидчиками. Девушка пойдет на всё, чтобы отомстить и устроить настоящую кровавую бойню.

Сэмпл
Качество видео: WEB-DL 1080p [Killing Joan 2018 1080p WEB-DL DD5 1 H264-CMRG]
Формат видео: MKV
Видео кодек: AVC
Аудио кодек: AC3
Видео: AVC, 5218 Кбит/сек, 1920*1080 (16:9), в 23,976 кадра/сек
Аудио №1: AC3, 384 Кбит/сек, 48 КГц, 5.1 - русский
Аудио №2: AC3, 384 Кбит/сек, 48 КГц, 5.1 - английский
Навигация по главам: есть
MediaInfo

Общее
Уникальный идентификатор : 227429694607671571511966649490016407940 (0xAB195DAC3291C91EA5494AC839399184)
Полное имя : V:!RipsKilling Joan (2018)Killing.Joan.2018.1080p.WEB-DL.Rus.Eng.H264-CMRG-stalkerok.new-team.mkv
Формат : Matroska
Версия формата : Version 4 / Version 2
Размер файла : 4,24 Гбайт
Продолжительность : 1 ч. 41 м.
Общий поток : 5988 Кбит/сек
Название фильма : Killing Joan (2018)
Дата кодирования : UTC 2018-04-15 20:11:20
Программа кодирования : mkvmerge v8.6.1 ('Flying') 64bit
Библиотека кодирования : libebml v1.3.3 + libmatroska v1.4.4
Видео
Идентификатор : 1
Формат : AVC
Формат/Информация : Advanced Video Codec
Профиль формата : High@L4
Параметр CABAC формата : Да
Параметр ReFrames формата : 4 кадра
Идентификатор кодека : V_MPEG4/ISO/AVC
Продолжительность : 1 ч. 41 м.
Битрейт : 5218 Кбит/сек
Ширина : 1920 пикселей
Высота : 1080 пикселей
Соотношение сторон : 16:9
Режим частоты кадров : Постоянный
Частота кадров : 23,976 (24000/1001) кадра/сек
Цветовое пространство : YUV
Субдискретизация насыщенности : 4:2:0
Битовая глубина : 8 бит
Тип развёртки : Прогрессивная
Бит/(Пиксели*Кадры) : 0.105
Размер потока : 3,69 Гбайт (87%)
Заголовок : Killing Joan (2018)
Язык : English
Default : Да
Forced : Нет
Цветовой диапазон : Limited
Основные цвета : BT.709
Характеристики трансфера : BT.709
Коэффициенты матрицы : BT.709
Аудио #1
Идентификатор : 2
Формат : AC-3
Формат/Информация : Audio Coding 3
Расширение режима : CM (complete main)
Параметр Endianness формата : Big
Идентификатор кодека : A_AC3
Продолжительность : 1 ч. 41 м.
Вид битрейта : Постоянный
Битрейт : 384 Кбит/сек
Каналы : 6 каналов
Расположение каналов : Front: L C R, Side: L R, LFE
Частота : 48,0 КГц
Частота кадров : 31,250 кадров/сек (1536 spf)
Метод сжатия : С потерями
Размер потока : 278 Мбайт (6%)
Заголовок : HiWay Grope
Язык : Russian
Default : Да
Forced : Нет
Аудио #2
Идентификатор : 3
Формат : AC-3
Формат/Информация : Audio Coding 3
Расширение режима : CM (complete main)
Параметр Endianness формата : Big
Идентификатор кодека : A_AC3
Продолжительность : 1 ч. 41 м.
Вид битрейта : Постоянный
Битрейт : 384 Кбит/сек
Каналы : 6 каналов
Расположение каналов : Front: L C R, Side: L R, LFE
Частота : 48,0 КГц
Частота кадров : 31,250 кадров/сек (1536 spf)
Метод сжатия : С потерями
Размер потока : 278 Мбайт (6%)
Язык : English
Default : Нет
Forced : Нет
Текст #1
Идентификатор : 4
Формат : UTF-8
Идентификатор кодека : S_TEXT/UTF8
Идентификатор кодека/Информация : UTF-8 Plain Text
Продолжительность : 1 ч. 38 м.
Битрейт : 46 бит/сек
Count of elements : 1376
Размер потока : 33,8 Кбайт (0%)
Язык : English
Default : Нет
Forced : Нет
Текст #2
Идентификатор : 5
Формат : UTF-8
Идентификатор кодека : S_TEXT/UTF8
Идентификатор кодека/Информация : UTF-8 Plain Text
Продолжительность : 1 ч. 41 м.
Битрейт : 52 бит/сек
Count of elements : 1633
Размер потока : 39,0 Кбайт (0%)
Заголовок : SDH
Язык : English
Default : Нет
Forced : Нет
Меню
00:00:00.000 : en:1
00:11:45.955 : en:2
00:26:56.156 : en:3
00:38:32.018 : en:4
00:48:50.720 : en:5
01:01:32.148 : en:6
01:11:18.859 : en:7
01:17:31.648 : en:8
01:26:25.473 : en:9
01:38:39.748 : en:10

[align=center]
Автор Bot
Категория Зарубежные фильмы
InfoHash CCA7E2DEAD80951C7DAFC81669BF15D06B245662
Файлы (1)
Показать файлы
Трекера
Показать трекера
Похожие раздачи
Название Добавлен Размер Сид Лич
Убийство Джоан / Killing Joan (2018) WEB-DLRip-AVC 16/04/2018 1.5 Гб 19 6
Убийство Джоан / Killing Joan (2018) WEBRip 720p | L2 15/04/2018 3.1 Гб 29 6
Убийство Джоан / Killing Joan (2018) WEBRip | L2 15/04/2018 1.3 Гб 76 4

    Нет комментариев

Войти на сайт

Статистика

  • Сидов: 1539537
  • Личеров: 162503