Подождите, загружаю...

Все раздачи Правила Информация Контакты

Умереть заново / Dead Again (1991) WEB-DL 1080p | P, P2, A

Умереть заново / Dead Again (1991) WEB-DL 1080p | P, P2, A

Название: Умереть заново
Оригинальное название: Dead Again
Год выпуска: 1991
Выпущено: США, Paramount Pictures, Mirage Enterprises
Жанр: Триллер, детектив, мелодрама, драма
Режиссер: Кеннет Брана
В ролях: Кеннет Брана, Энди Гарсиа, Дерек Джекоби, Уэйн Найт, Ханна Шигулла, Кэмпбелл Скотт, Эмма Томпсон, Джо Андерсон, Кристин Эберсоул, Луис Холл
О фильме:
Майк Чёрч — частный детектив из Лос-Анджелеса, специализирующийся на розыске пропавших людей. Он занимается делом молодой девушки, которую он зовёт Грейс. У девушки амнезия и она ничего не помнит из своего прошлого. Её постоянно мучают кошмары, в которых пианистку конца 1940-х Маргарет Штраусс ножницами убивает её муж Роман Штраусс. В ходе расследования Чёрч обращается за помощью к Франклину Мэдсону, торговцу антиквариатом. С помощью гипноза они надеются докопаться до истины.
Продолжительность: 01:47:42
Перевод: Профессиональный многоголосый, профессиональный двухголосый, авторский
Субтитры: Английские, немецкие, испанские, французские, итальянские, голландские, польские, португальские
Навигация по главам: Есть
Файл
Качество: WEB-DL 1080p
Видео: MPEG-4 AVC, 11,8 Мбит/сек, 1920x1080, 23,976 кадра/сек
Аудио #1: AC3, 2 ch, 192 Кбит/сек | Русский, профессиональный (многоголосый закадровый) студия «Эй Би Видео» по заказу Первого Канала
Аудио #2: AC3, 2 ch, 192 Кбит/сек | Русский, профессиональный (двухголосый закадровый) Paramount Channel, НТВ+
Аудио #3: AC3, 2 ch, 384 Кбит/сек | Русский, профессиональный (двухголосый закадровый) Премьер Видео Фильм
Аудио #4: AC3, 2 ch, 192 Кбит/сек | Русский, авторский (одноголосый закадровый) Алексей Михалёв
Аудио #5: EAC3, 6 ch, 640 Кбит/сек | Английский, оригинал

Скриншоты

Инфо-файл
Общее
Уникальный идентификатор : 172850814149704342192124770644846970209 (0x8209DB1B7E41FB32B35C490BC9400561)
Полное имя : Умереть.заново.1991.WEB-DL.1080p.mkv
Формат : Matroska
Версия формата : Version 2
Размер файла : 10,3 Гбайт
Продолжительность : 1 ч. 47 м.
Режим общего битрейта : Переменный
Общий поток : 13,7 Мбит/сек
Дата кодирования : UTC 2018-04-16 11:05:25
Программа кодирования : mkvmerge v5.8.0 ('No Sleep / Pillow') built on Sep 2 2012 15:37:04
Библиотека кодирования : libebml v1.2.3 + libmatroska v1.3.0
Видео
Идентификатор : 1
Формат : AVC
Формат/Информация : Advanced Video Codec
Профиль формата : High@L4
Настройки формата : CABAC / 4 Ref Frames
Параметр CABAC формата : Да
Параметр RefFrames формата : 4 кадра
Идентификатор кодека : V_MPEG4/ISO/AVC
Продолжительность : 1 ч. 47 м.
Вид битрейта : Переменный
Битрейт : 11,8 Мбит/сек
Максимальный битрейт : 15,0 Мбит/сек
Ширина : 1920 пикселей
Высота : 1080 пикселей
Соотношение сторон : 16:9
Режим частоты кадров : Постоянный
Частота кадров : 23,976 (24000/1001) кадра/сек
Цветовое пространство : YUV
Субдискретизация насыщенности : 4:2:0
Битовая глубина : 8 бит
Тип развёртки : Прогрессивная
Бит/(Пиксели*Кадры) : 0.238
Размер потока : 8,89 Гбайт (86%)
Язык : English
Default : Да
Forced : Нет
Цветовой диапазон : Limited
Основные цвета : BT.709
Характеристики трансфера : BT.709
Коэффициенты матрицы : BT.709
Аудио #1
Идентификатор : 2
Формат : AC-3
Формат/Информация : Audio Coding 3
Идентификатор кодека : A_AC3
Продолжительность : 1 ч. 47 м.
Вид битрейта : Постоянный
Битрейт : 192 Кбит/сек
Каналы : 2 канала
Расположение каналов : Front: L R
Частота : 48,0 КГц
Частота кадров : 31,250 кадров/сек (1536 SPF)
Битовая глубина : 16 бит
Метод сжатия : С потерями
Размер потока : 148 Мбайт (1%)
Заголовок : MVO | Первый Канал
Язык : Russian
По умолчанию : Да
Принудительно : Нет
Аудио #2
Идентификатор : 3
Формат : AC-3
Формат/Информация : Audio Coding 3
Идентификатор кодека : A_AC3
Продолжительность : 1 ч. 47 м.
Вид битрейта : Постоянный
Битрейт : 192 Кбит/сек
Каналы : 2 канала
Расположение каналов : Front: L R
Частота : 48,0 КГц
Частота кадров : 31,250 кадров/сек (1536 SPF)
Битовая глубина : 16 бит
Метод сжатия : С потерями
Размер потока : 148 Мбайт (1%)
Заголовок : DVO | Paramount Channe
Язык : Russian
По умолчанию : Нет
Принудительно : Нет
Аудио #3
Идентификатор : 4
Формат : AC-3
Формат/Информация : Audio Coding 3
Идентификатор кодека : A_AC3
Продолжительность : 1 ч. 47 м.
Вид битрейта : Постоянный
Битрейт : 384 Кбит/сек
Каналы : 2 канала
Расположение каналов : Front: L R
Частота : 48,0 КГц
Частота кадров : 31,250 кадров/сек (1536 SPF)
Битовая глубина : 16 бит
Метод сжатия : С потерями
Размер потока : 296 Мбайт (3%)
Заголовок : DVO | Премьер Видео Фильм
Язык : Russian
По умолчанию : Нет
Принудительно : Нет
Аудио #4
Идентификатор : 5
Формат : AC-3
Формат/Информация : Audio Coding 3
Идентификатор кодека : A_AC3
Продолжительность : 1 ч. 47 м.
Вид битрейта : Постоянный
Битрейт : 192 Кбит/сек
Каналы : 2 канала
Расположение каналов : Front: L R
Частота : 48,0 КГц
Частота кадров : 31,250 кадров/сек (1536 SPF)
Битовая глубина : 16 бит
Метод сжатия : С потерями
Размер потока : 148 Мбайт (1%)
Заголовок : AVO | А. Михалев
Язык : Russian
По умолчанию : Нет
Принудительно : Нет
Аудио #5
Идентификатор : 6
Формат : E-AC-3
Формат/Информация : Enhanced Audio Coding 3
Идентификатор кодека : A_EAC3
Продолжительность : 1 ч. 47 м.
Вид битрейта : Постоянный
Битрейт : 640 Кбит/сек
Каналы : 6 каналов
Расположение каналов : Front: L C R, Side: L R, LFE
Частота : 48,0 КГц
Частота кадров : 187,500 кадров/сек (256 SPF)
Метод сжатия : С потерями
Размер потока : 493 Мбайт (5%)
Заголовок : Original
Язык : English
По умолчанию : Нет
Принудительно : Нет
Текст #1
Идентификатор : 7
Формат : UTF-8
Идентификатор кодека : S_TEXT/UTF8
Идентификатор кодека/Информация : UTF-8 Plain Text
Язык : English
По умолчанию : Нет
Принудительно : Нет
Текст #2
Идентификатор : 8
Формат : UTF-8
Идентификатор кодека : S_TEXT/UTF8
Идентификатор кодека/Информация : UTF-8 Plain Text
Заголовок : SDH
Язык : English
По умолчанию : Нет
Принудительно : Нет
Текст #3
Идентификатор : 9
Формат : UTF-8
Идентификатор кодека : S_TEXT/UTF8
Идентификатор кодека/Информация : UTF-8 Plain Text
Язык : German
По умолчанию : Нет
Принудительно : Нет
Текст #4
Идентификатор : 10
Формат : UTF-8
Идентификатор кодека : S_TEXT/UTF8
Идентификатор кодека/Информация : UTF-8 Plain Text
Язык : Spanish
По умолчанию : Нет
Принудительно : Нет
Текст #5
Идентификатор : 11
Формат : UTF-8
Идентификатор кодека : S_TEXT/UTF8
Идентификатор кодека/Информация : UTF-8 Plain Text
Язык : French
По умолчанию : Нет
Принудительно : Нет
Текст #6
Идентификатор : 12
Формат : UTF-8
Идентификатор кодека : S_TEXT/UTF8
Идентификатор кодека/Информация : UTF-8 Plain Text
Язык : Italian
По умолчанию : Нет
Принудительно : Нет
Текст #7
Идентификатор : 13
Формат : UTF-8
Идентификатор кодека : S_TEXT/UTF8
Идентификатор кодека/Информация : UTF-8 Plain Text
Язык : Dutch
По умолчанию : Нет
Принудительно : Нет
Текст #8
Идентификатор : 14
Формат : UTF-8
Идентификатор кодека : S_TEXT/UTF8
Идентификатор кодека/Информация : UTF-8 Plain Text
Язык : Polish
По умолчанию : Нет
Принудительно : Нет
Текст #9
Идентификатор : 15
Формат : UTF-8
Идентификатор кодека : S_TEXT/UTF8
Идентификатор кодека/Информация : UTF-8 Plain Text
Язык : Portuguese
По умолчанию : Нет
Принудительно : Нет
Меню #1
00:00:00.000 : en:Chapter 01
00:07:58.073 : en:Chapter 02
00:15:41.870 : en:Chapter 03
00:21:27.632 : en:Chapter 04
00:28:10.785 : en:Chapter 05
00:42:57.879 : en:Chapter 06
00:47:30.151 : en:Chapter 07
00:56:06.459 : en:Chapter 08
01:00:13.247 : en:Chapter 09
01:09:02.192 : en:Chapter 10
01:18:18.372 : en:Chapter 11
01:23:26.222 : en:Chapter 12
01:33:06.677 : en:Chapter 13
01:44:34.989 : en:Chapter 14

Дополнительная информация
• Исходник видео WEB-DL Amazon.

Сборка:
Автор Bot
Категория Зарубежные фильмы
InfoHash 94C7DE815821EBA7761A27B6B65064F19E7D9BAF
Файлы (1)
Показать файлы
Трекера
Показать трекера

    Нет комментариев

Войти на сайт

Статистика

  • Сидов: 1539537
  • Личеров: 162503