Подождите, загружаю...

Все раздачи Раздачи по тегам Правила Информация Контакты

Явная ложь / Thumper (2017) WEBDLRip 720p

Явная ложь / Thumper (2017) WEBDLRip 720p

Информация о фильме
Название: Явная ложь
Оригинальное название: Thumper
Год выхода: 2017
Жанр: триллер, драма, криминал
Режиссер: Джордан Росс
В ролях: Элайза Тейлор, Лина Хиди, Пабло Шрайбер, Бен Фельдман, Даниэль Уэббер, Грант Уитни Харви, Бретт Райс, Бриджитт Кали, Бритен Далтон, Мика Паркер и др.
О фильме:
Подростки из неблагополучного района вовлечены в торговлю наркотиками под началом жестокого и опасного дилера. И, когда в город приезжает новенькая, скрывающая страшную тайну, её отношения с одним из парней ставят под угрозу всё их дело.

Страна: США
Продолжительность: 01:33:27
Перевод: Профессиональный, многоголосный, закадровый (AlexFilm)
Файл
Кодек: MPEG-4 AVC
Качество: WEBDLRip 720p
Видео: 1280х720 (16:9), 23.976 fps, ~3000 kbps avg, 0.136 bit/pixel
Звук:
Аудио Rus: 48 kHz, AC3 Dolby Digital, 3/2 (L,C,R,l,r) + LFE ch, ~384.00 kbps
Аудио Eng: 48 kHz, AC3 Dolby Digital, 3/2 (L,C,R,l,r) + LFE ch, ~384.00 kbps
Субтитры: отсутствуют
Реклама: присутствует
MediaInfo

Формат : Matroska
Версия формата : Version 4 / Version 2
Размер файла : 2,44 Гбайт
Продолжительность : 1 ч. 32 м.
Общий поток : 3768 Кбит/сек
Название фильма : Thumper (2017) @ AlexFilm
Дата кодирования : UTC 2017-11-12 17:00:59
Программа кодирования : mkvmerge v7.1.0 ('Good Love') 64bit built on Jul 27 2014 13:06:55
Библиотека кодирования : libebml v1.3.0 + libmatroska v1.4.1
Видео
Идентификатор : 1
Формат : AVC
Формат/Информация : Advanced Video Codec
Профиль формата : High@L4.1
Параметр CABAC формата : Да
Параметр ReFrames формата : 9 кадров
Идентификатор кодека : V_MPEG4/ISO/AVC
Продолжительность : 1 ч. 32 м.
Битрейт : 3000 Кбит/сек
Ширина : 1280 пикселей
Высота : 720 пикселей
Соотношение сторон : 16:9
Режим частоты кадров : Постоянный
Частота кадров : 23,976 (24000/1001) кадра/сек
Цветовое пространство : YUV
Субдискретизация насыщенности : 4:2:0
Битовая глубина : 8 бит
Тип развёртки : Прогрессивная
Бит/(Пиксели*Кадры) : 0.136
Размер потока : 1,90 Гбайт (78%)
Библиотека кодирования : x264 core 148 r2744 b97ae06
Настройки программы : cabac=1 / ref=9 / deblock=1:-3:-3 / analyse=0x3:0x113 / me=umh / subme=11 / psy=1 / psy_rd=1.00:0.10 / mixed_ref=1 / me_range=32 / chroma_me=1 / trellis=2 / 8x8dct=1 / cqm=0 / deadzone=21,11 / fast_pskip=0 / chroma_qp_offset=-3 / threads=6 / lookahead_threads=1 / sliced_threads=0 / nr=0 / decimate=0 / interlaced=0 / bluray_compat=0 / constrained_intra=0 / bframes=9 / b_pyramid=2 / b_adapt=2 / b_bias=0 / direct=3 / weightb=1 / open_gop=0 / weightp=2 / keyint=240 / keyint_min=23 / scenecut=40 / intra_refresh=0 / rc=2pass / mbtree=0 / bitrate=3000 / ratetol=1.0 / qcomp=0.60 / qpmin=0 / qpmax=69 / qpstep=4 / cplxblur=20.0 / qblur=0.5 / ip_ratio=1.40 / pb_ratio=1.30 / aq=1:1.00
Default : Да
Forced : Нет
Аудио #1
Идентификатор : 2
Формат : AC-3
Формат/Информация : Audio Coding 3
Расширение режима : CM (complete main)
Параметр Endianness формата : Big
Идентификатор кодека : A_AC3
Продолжительность : 1 ч. 32 м.
Вид битрейта : Постоянный
Битрейт : 384 Кбит/сек
Каналы : 6 каналов
Расположение каналов : Front: L C R, Side: L R, LFE
Частота : 48,0 КГц
Частота кадров : 31,250 кадров/сек (1536 spf)
Метод сжатия : С потерями
Размер потока : 255 Мбайт (10%)
Заголовок : DD5.1 AlexFilm
Язык : Russian
Default : Да
Forced : Нет
Аудио #2
Идентификатор : 3
Формат : AC-3
Формат/Информация : Audio Coding 3
Расширение режима : CM (complete main)
Параметр Endianness формата : Big
Идентификатор кодека : A_AC3
Продолжительность : 1 ч. 32 м.
Вид битрейта : Постоянный
Битрейт : 384 Кбит/сек
Каналы : 6 каналов
Расположение каналов : Front: L C R, Side: L R, LFE
Частота : 48,0 КГц
Частота кадров : 31,250 кадров/сек (1536 spf)
Метод сжатия : С потерями
Размер потока : 255 Мбайт (10%)
Заголовок : DD5.1 Original
Язык : English
Default : Нет
Forced : Нет
Скриншоты


Релиз от: AlexFilm
Автор Bot
Категория Зарубежные фильмы
InfoHash FB9CA5D46341194D0156FBD8B63443098BAB2386
Файлы (1)
Показать файлы
Трекера
Показать трекера
Похожие раздачи
Название Добавлен Размер Сид Лич
Явная ложь / Thumper (2017) WEBRip | L2 23/12/2017 1.4 Гб 7 1
Явная ложь / Thumper (2017) WEBRip 720p | L2 23/12/2017 2.6 Гб 11 0

    Нет комментариев

Войти на сайт

Статистика

  • Всего торрентов: 73670
  • Объёмом: 422.9 Тб
  • Сидов: 2092979
  • Личеров: 167047