Подождите, загружаю...

Все раздачи Раздачи по тегам Правила Информация Контакты

Шёпот дьявола / Devil's Whisper (2017) WEBRip | L2

Шёпот дьявола / Devil's Whisper (2017) WEBRip | L2

Информация о фильме
Название: Шёпот дьявола
Оригинальное название: Devil's Whisper
Год выхода: 2017
Жанр: Ужасы, триллер, драма
Режиссер: Адам Рипп
В ролях: Люка Ориел, Элисон Фернандез, Маркос А. Ферраез, Луна Майя, Оливия Негрон, Джаспер Полиш, Рик Раванелло и другие
О фильме:
15-летний Алехандро Дурэн стремится стать одним из католических священников. Но когда Алекс обнаруживает таинственную коробку, то невольно освобождает злой дух. Алекс должен найти способ победить этого древнего демона, мучавшего людей с самого начала времён, пока он не уничтожил его и его близких. Шёпот дъявола - фильм ужасов об одержимости, но в его основе лежит психологический триллер о подавленных воспоминаниях.

Страна: США, MD Media, Vega
Продолжительность: 01:25:54
Перевод: Любительский (двухголосый закадровый) | RecentFilms
Файл
Кодек: XviD
Качество: WEBRip
Видео: 720x304 , 23,976 fps, ~1753 Kbps, 0.33 bit/pixel
Звук:
Аудио rus: AC3, 48 kHz, 2 ch, 192 Kbps
Субтитры: отсутствуют
Реклама: присутствует
Семпл
MediaInfo:

General
Complete name : F:FilmsDevils.Whisper.2017.WEBRip.RecentFilmsDevils.Whisper.2017.WEBRip.RecentFilms.avi
Format : AVI
Format/Info : Audio Video Interleave
File size : 1.17 GiB
Duration : 1h 25mn
Overall bit rate : 1 955 Kbps
Writing application : VirtualDubMod 1.5.10.2 (build 2540/release)
Writing library : VirtualDubMod build 2540/release
Video
ID : 0
Format : MPEG-4 Visual
Format profile : Advanced Simple@L5
Format settings, BVOP : 1
Format settings, QPel : No
Format settings, GMC : No warppoints
Format settings, Matrix : Default (H.263)
Codec ID : XVID
Codec ID/Hint : XviD
Duration : 1h 25mn
Bit rate : 1 753 Kbps
Width : 720 pixels
Height : 304 pixels
Display aspect ratio : 2.40:1
Frame rate : 23.976 (24000/1001) fps
Color space : YUV
Chroma subsampling : 4:2:0
Bit depth : 8 bits
Scan type : Progressive
Compression mode : Lossy
Bits/(Pixel*Frame) : 0.334
Stream size : 1.05 GiB (90%)
Writing library : XviD 67
Audio
ID : 1
Format : AC-3
Format/Info : Audio Coding 3
Mode extension : CM (complete main)
Format settings, Endianness : Big
Codec ID : 2000
Duration : 1h 25mn
Bit rate mode : Constant
Bit rate : 192 Kbps
Channel(s) : 2 channels
Channel positions : Front: L R
Sampling rate : 48.0 KHz
Frame rate : 31.250 fps (1536 spf)
Compression mode : Lossy
Stream size : 118 MiB (10%)
Alignment : Split accross interleaves
Interleave, duration : 42 ms (1.00 video frame)
Interleave, preload duration : 500 ms
General
Complete name : F:FilmsDevils.Whisper.2017.WEBRip.RecentFilmsDevils.Whisper.2017.WEBRip.RecentFilms.avi.torrent
File size : 12.2 KiB
Скриншоты



Релиз от: RecentFilms
Автор Bot
Категория Зарубежные фильмы
InfoHash 44498E0F7495086FC01A156E97BFCDFD532E8BDF
Файлы (1)
Показать файлы
Трекера
Показать трекера
Похожие раздачи
Название Добавлен Размер Сид Лич
Шёпот дьявола / Devil's Whisper (2017) WEBRip 720p | L2 15/11/2017 2.4 Гб 3 3

    Нет комментариев

Войти на сайт

Статистика

  • Всего торрентов: 74266
  • Объёмом: 426.7 Тб
  • Сидов: 2144166
  • Личеров: 185807