Все раздачи Раздачи по тегам Правила Информация Контакты

О теле и душе / Testről és Lélekről (2017) WEB-DLRip-AVC | iTunes

О теле и душе  / Testről és Lélekről (2017) WEB-DLRip-AVC | iTunes

О теле и душе / Testről és Lélekről


Год выпуска: 2017
Страна: Венгрия
Производство: Inforg-M&M Film Kft
Жанр: Драма, мелодрама
Режиссёр: Ильдико Эньеди
В ролях: Геза Морчани, Александра Борбей, Золтан Шнайдер, Эрвин Надь, Тамаш Йордан, Жужа Яро, Река Тенки, Юлия Ньяко, Итала Бекеш, Эва Бата
Перевод: Профессиональный многоголосый | iTunes
Субтитры: Нет
Реклама: Отсутствует
Описание: Сторонящаяся людей Мария и общительный, но одинокий Эндре — коллеги. Оба ведут замкнутый образ жизни и стараются избегать общения друг с другом. Неожиданно для себя они узнают, что каждую ночь им снятся одинаковые сны. Видя в этом некий знак, герои решаются на сближение. Открывшись друг другу, Эндре и Мария окажутся в водовороте комических и даже шокирующих событий…

Качество: WEB-DLRip-AVC
Продолжительность: 01:55:34
Формат: MKV
Видео кодек: MPEG-4 AVC
Аудио кодек: AC3
Видео: 1024x428 (2.40:1), 23,976 fps, x264 ~1493 kbps avg, 0.142 bit/pixel
Аудио: 48 kHz, AC3 Dolby Digital, 3/2 (L,C,R,l,r) + LFE ch, ~384.00 kbps avg | RUS (iTunes)
Дата премьеры (мир): 10 февраля 2017
Дата премьеры (РФ): 12 октября 2017, «Русский Репортаж»

Релиз от: Rip by:
MediaInfo

Общее
Уникальный идентификатор : 224645237667470410312754907359024443449 (0xA9011958A3A2A8F2A6D91D1E291AF039)
Полное имя : E:OlLanDGroupO.Tele.I.Dushe.2017.WEB-DLRip(AVC).OlLanDGroup.mkv
Формат : Matroska
Версия формата : Version 2
Размер файла : 1,52 Гбайт
Продолжительность : 1 ч. 55 м.
Общий поток : 1879 Кбит/сек
Название фильма : O.Tele.I.Dushe.2017 #TorpedoUK#
Дата кодирования : UTC 2017-11-13 12:34:34
Программа кодирования : mkvmerge v7.8.0 ('River Man') 32bit built on Apr 3 2015 12:11:22
Библиотека кодирования : libebml v1.3.1 + libmatroska v1.4.2
Видео
Идентификатор : 1
Формат : AVC
Формат/Информация : Advanced Video Codec
Профиль формата : High@L4.1
Параметр CABAC формата : Да
Параметр ReFrames формата : 10 кадров
Идентификатор кодека : V_MPEG4/ISO/AVC
Продолжительность : 1 ч. 55 м.
Битрейт : 1493 Кбит/сек
Ширина : 1024 пикселя
Высота : 428 пикселей
Соотношение сторон : 2,40:1
Режим частоты кадров : Постоянный
Частота кадров : 24,000 кадра/сек
Цветовое пространство : YUV
Субдискретизация насыщенности : 4:2:0
Битовая глубина : 8 бит
Тип развёртки : Прогрессивная
Бит/(Пиксели*Кадры) : 0.142
Размер потока : 1,18 Гбайт (78%)
Библиотека кодирования : x264 core 146 r2538 121396c
Настройки программы : cabac=1 / ref=10 / deblock=1:-3:-3 / analyse=0x3:0x133 / me=umh / subme=11 / psy=1 / psy_rd=0.98:0.06 / mixed_ref=1 / me_range=48 / chroma_me=1 / trellis=2 / 8x8dct=1 / cqm=0 / deadzone=21,11 / fast_pskip=1 / chroma_qp_offset=-3 / threads=6 / lookahead_threads=1 / sliced_threads=0 / nr=0 / decimate=1 / interlaced=0 / bluray_compat=0 / constrained_intra=0 / bframes=10 / b_pyramid=2 / b_adapt=2 / b_bias=0 / direct=3 / weightb=1 / open_gop=0 / weightp=2 / keyint=240 / keyint_min=24 / scenecut=40 / intra_refresh=0 / rc_lookahead=40 / rc=2pass / mbtree=0 / bitrate=1493 / ratetol=1.0 / qcomp=0.60 / qpmin=0 / qpmax=69 / qpstep=4 / cplxblur=20.0 / qblur=0.5 / vbv_maxrate=50000 / vbv_bufsize=62500 / nal_hrd=none / filler=0 / ip_ratio=1.40 / pb_ratio=1.30 / aq=1:1.00
Язык : English
Default : Да
Forced : Нет
Аудио
Идентификатор : 2
Формат : AC-3
Формат/Информация : Audio Coding 3
Расширение режима : CM (complete main)
Параметр Endianness формата : Big
Идентификатор кодека : A_AC3
Продолжительность : 1 ч. 55 м.
Вид битрейта : Постоянный
Битрейт : 384 Кбит/сек
Каналы : 6 каналов
Расположение каналов : Front: L C R, Side: L R, LFE
Частота : 48,0 КГц
Частота кадров : 31,250 кадров/сек (1536 spf)
Битовая глубина : 16 бит
Метод сжатия : С потерями
Размер потока : 317 Мбайт (20%)
Заголовок : [MVO] DD 5.1 @ 384 kbps (iTunes)
Язык : Russian
Default : Да
Forced : Нет
Меню
00:00:00.000 : en:Глава 1
00:05:13.708 : en:Глава 2
00:12:21.999 : en:Глава 3
00:18:15.874 : en:Глава 4
00:24:04.915 : en:Глава 5
00:31:40.581 : en:Глава 6
00:41:25.331 : en:Глава 7
00:48:32.039 : en:Глава 8
00:54:12.664 : en:Глава 9
01:01:00.455 : en:Глава 10
01:08:21.496 : en:Глава 11
01:15:33.329 : en:Глава 12
01:22:38.454 : en:Глава 13
01:28:38.454 : en:Глава 14
01:33:47.037 : en:Глава 15
01:40:01.162 : en:Глава 16
01:45:47.578 : en:Глава 17

Скриншоты




Автор Bot
Категория Зарубежные фильмы
InfoHash A7D1E90C62B33364162C7B4EB1819266AEEEDECB
Файлы (1)
Показать файлы
Трекера
Показать трекера
Похожие раздачи

    Нет комментариев

Войти на сайт

Статистика

  • Всего торрентов: 86190
  • Объёмом: 510.9 Тб
  • Сидов: 2599539
  • Личеров: 164253