Все раздачи Раздачи по тегам Правила Информация Контакты

Собака на сене (1977) DVDRip-AVC

Собака на сене (1977) DVDRip-AVC

Информация о фильме
Название: Собака на сене
Год выхода: 1977
Жанр: Музыкальный, комедия, экранизация
Режиссёр: Ян Фрид
В ролях: Маргарита Терехова, Михаил Боярский, Армен Джигарханян, Елена Проклова, Зинаида Шарко, Виктор Ильичев, Игорь Дмитриев, Николай Караченцов, Гелена Ивлиева, Алексей Кожевников, Виталий Леонов, Федор Никитин, Эрнст Романов, Вадим Михайлов, Роман Фурман
О фильме: По мотивам одноимённой пьесы Лопе де Вега. Богатая и знатная сеньора Диана терзается сомнениями: ей нужно выбрать между достойными ее руки женихами и личным секретарем - красавцем и ловеласом. А тот, в свою очередь, не может решить, кто ему больше по сердцу, его обворожительная хозяйка или ее прелестная служанка.

Выпущено: СССР
Продолжительность: 02:08:43
Перевод: Не требуется
Файл
Кодек: х264
Качество: DVDRip-AVC
Видео: MPEG-4 AVC, 720x576@768x576, 25.000 fps, 3800 Кбит/с
Аудио 1: AC3, 6 ch, 448 Кбит/с
Аудио 2: AC3, 1 ch, 224 Кбит/с
Субтитры: Нет
Навигация по главам: Есть
Релиз от:
Скриншоты

MediaInfo
Общее
Уникальный идентификатор : 179294089568697736806047611120476294627 (0x86E2C91CC45CCDAEAD39EECB3D310DE3)
Полное имя : Собака на сене_1977_DVDRip-AVC_KORSAR.mkv
Формат : Matroska
Версия формата : Version 2
Размер файла : 2,03 Гбайт
Продолжительность : 1 ч. 4 м.
Общий поток : 4474 Кбит/сек
Дата кодирования : UTC 2016-12-13 11:30:12
Программа кодирования : mkvmerge v5.8.0 ('No Sleep / Pillow') built on Sep 2 2012 15:37:04
Библиотека кодирования : libebml v1.2.3 + libmatroska v1.3.0
Видео
Идентификатор : 1
Формат : AVC
Формат/Информация : Advanced Video Codec
Профиль формата : High@L4.1
Параметр CABAC формата : Да
Параметр ReFrames формата : 14 кадров
Идентификатор кодека : V_MPEG4/ISO/AVC
Продолжительность : 1 ч. 4 м.
Битрейт : 3800 Кбит/сек
Ширина : 720 пикселей
Высота : 576 пикселей
Соотношение сторон : 4:3
Режим частоты кадров : Постоянный
Частота кадров : 25,000 кадров/сек
Стандарт вещания : PAL
Цветовое пространство : YUV
Субдискретизация насыщенности : 4:2:0
Битовая глубина : 8 бит
Тип развёртки : Прогрессивная
Бит/(Пиксели*Кадры) : 0.367
Размер потока : 1,68 Гбайт (83%)
Заголовок : KORSAR
Библиотека кодирования : x264 core 148 r2721kMod 72d53ab
Настройки программы : cabac=1 / ref=14 / deblock=1:-2:-2 / analyse=0x3:0x133 / me=umh / subme=11 / psy=1 / fade_compensate=0.00 / psy_rd=1.05:0.13 / mixed_ref=1 / me_range=32 / chroma_me=1 / trellis=2 / 8x8dct=1 / cqm=0 / deadzone=21,11 / fast_pskip=0 / chroma_qp_offset=-3 / threads=12 / lookahead_threads=3 / sliced_threads=0 / nr=0 / decimate=0 / interlaced=0 / bluray_compat=0 / constrained_intra=0 / fgo=0 / bframes=10 / b_pyramid=2 / b_adapt=2 / b_bias=0 / direct=3 / weightb=1 / open_gop=0 / weightp=2 / keyint=250 / keyint_min=25 / scenecut=40 / intra_refresh=0 / rc=2pass / mbtree=0 / bitrate=3800 / ratetol=1.0 / qcomp=0.63 / qpmin=0 / qpmax=39 / qpstep=4 / cplxblur=20.0 / qblur=0.5 / ip_ratio=1.20 / pb_ratio=1.30 / aq=1:1.00
Язык : English
Default : Да
Forced : Нет
Цветовой диапазон : Limited
Основные цвета : BT.601 PAL
Характеристики трансфера : BT.470 System B, BT.470 System G
Коэффициенты матрицы : BT.601
Аудио #1
Идентификатор : 2
Формат : AC-3
Формат/Информация : Audio Coding 3
Расширение режима : CM (complete main)
Параметр Endianness формата : Big
Идентификатор кодека : A_AC3
Продолжительность : 1 ч. 4 м.
Вид битрейта : Постоянный
Битрейт : 448 Кбит/сек
Каналы : 6 каналов
Расположение каналов : Front: L C R, Side: L R, LFE
Частота : 48,0 КГц
Частота кадров : 31,250 кадров/сек (1536 spf)
Битовая глубина : 16 бит
Метод сжатия : С потерями
Задержка видео : 291 мс.
Размер потока : 208 Мбайт (10%)
Язык : Russian
Default : Да
Forced : Нет
Аудио #2
Идентификатор : 3
Формат : AC-3
Формат/Информация : Audio Coding 3
Расширение режима : CM (complete main)
Параметр Endianness формата : Big
Идентификатор кодека : A_AC3
Продолжительность : 1 ч. 4 м.
Вид битрейта : Постоянный
Битрейт : 224 Кбит/сек
Каналы : 1 канал
Расположение каналов : Front: C
Частота : 48,0 КГц
Частота кадров : 31,250 кадров/сек (1536 spf)
Битовая глубина : 16 бит
Метод сжатия : С потерями
Задержка видео : 291 мс.
Размер потока : 104 Мбайт (5%)
Язык : Russian
Default : Нет
Forced : Нет
Меню
00:00:00.000 : en:Chapter 1
00:10:41.160 : en:Chapter 2
00:16:42.960 : en:Chapter 3
00:22:44.760 : en:Chapter 4
00:30:36.360 : en:Chapter 5
00:39:15.960 : en:Chapter 6
00:45:38.760 : en:Chapter 7
00:50:59.760 : en:Chapter 8
00:55:35.160 : en:Chapter 9
Автор Bot
Категория Наши фильмы
InfoHash CCEBF433FCB88E9E670F2FAB44FB2052710AB939
Файлы (2)
Показать файлы
Трекера
Показать трекера
Похожие раздачи
Название Добавлен Размер Сид Лич
Собака на сене (1977) WEB-Rip-AVC 14/05/2018 2.9 Гб 0 0
Собака на сене (1977) WEB-Rip 1080p 13/05/2018 13.9 Гб 7 1
Собака на сене (1977) DVDRip | Реставрация 23/12/2017 2.2 Гб 15 1

    Нет комментариев

Войти на сайт

Статистика

  • Всего торрентов: 80764
  • Объёмом: 476.9 Тб
  • Сидов: 2210786
  • Личеров: 165762