A PHP Error was encountered

Severity: Notice

Message: Trying to get property 'id' of non-object

Filename: controllers/Torrent.php

Line Number: 25

Backtrace:

File: /home/torr/www/application/controllers/Torrent.php
Line: 25
Function: _error_handler

File: /home/torr/www/public/index.php
Line: 317
Function: require_once

Симпсоны / The Simpsons [29x01-20 из 22] (2017) HDTVRip | 6.3 Гб - ToRR.ws

Подождите, загружаю...

Все раздачи Раздачи по тегам Правила Информация Контакты

Симпсоны / The Simpsons [29x01-20 из 22] (2017) HDTVRip

Симпсоны / The Simpsons [29x01-20 из 22] (2017) HDTVRip

Информация о фильме
Название: Симпсоны
Оригинальное название: The Simpsons
Год выхода: 2017
Жанр: Комедия, сатира
Режиссер: Марк Керклэнд, Стивен Дин Мур, Боб Андерсон
В ролях: Дэн Кастелланета, Джули Кавнер, Нэнси Картрайт, Ярдли Смит, Гарри Ширер, Хэнк Азария, Памела Хейден, Тресс МакНилл, Карл Видерготт, Мэгги Росвэлл и др.
О фильме:
«Симпсоны» - это пародия на всех и вся, и на типичный американский уклад жизни в целом. Главные герои этого мультсериала - показательная в своей типичности семья Симпсонов - обжора и лежебока, недалекий Гомер, его жена-умница домохозяйка Мардж, их дети сорванец Барт, одаренная умная девочка Лиза и совсем еще младенец Мэгги. Каждая серия не только богата юмором, но и высмеивает одну из волнующих современного человека тем, так что сериал с успехом пережил более 25 сезонов и продолжает успешное шествие по экранам. Отрезки, шутки, сами герои Симпсонов стали неотъемлемой частью современной поп-культуры, а их имена стали именами нарицательными.

Страна: США
Продолжительность: ~ 00:22:00 серия
Перевод: Любительский (многоголосый закадровый) | OMSKBIRD records
Файл
Кодек: XviD
Качество: HDTVRip
Видео: 720x400 (16:9), 23.976 fps, ~2000 kbps
Звук:
Аудио rus: AC-3, 48 KHz, 2 ch, 192 kbps | OMSKBIRD records
Реклама: присутствуют аудио вставки рекламы
Семпл
Релиз:

Релиз-группа: OmskBird
Перевод: Екатерина Полева
Роли озвучивали: Павел Ярощик, Станислав Черсков, Дмитрий Виноградов, Алена Соколова
Звукорежиссер: Павел Квентов
MediaInfo:

General
Complete name : G:FilmsThe.Simpsons.S29.400p.OmskBirdThe.Simpsons.S29E01.HDTVRip.OmskBird.avi
Format : AVI
Format/Info : Audio Video Interleave
File size : 361 MiB
Duration : 22mn 15s
Overall bit rate : 2 264 Kbps
Writing application : VirtualDubMod 1.5.10.3 (build 2550/release)
Writing library : VirtualDubMod build 2550/release
Video
ID : 0
Format : MPEG-4 Visual
Format profile : Advanced Simple@L5
Format settings, BVOP : 1
Format settings, QPel : No
Format settings, GMC : No warppoints
Format settings, Matrix : Default (MPEG)
Codec ID : XVID
Codec ID/Hint : XviD
Duration : 22mn 15s
Bit rate : 2 063 Kbps
Width : 720 pixels
Height : 400 pixels
Display aspect ratio : 16:9
Frame rate : 23.976 (23976/1000) fps
Color space : YUV
Chroma subsampling : 4:2:0
Bit depth : 8 bits
Scan type : Progressive
Compression mode : Lossy
Bits/(Pixel*Frame) : 0.299
Stream size : 328 MiB (91%)
Writing library : XviD 73
Audio
ID : 1
Format : AC-3
Format/Info : Audio Coding 3
Mode extension : CM (complete main)
Format settings, Endianness : Big
Codec ID : 2000
Duration : 22mn 15s
Bit rate mode : Constant
Bit rate : 192 Kbps
Channel(s) : 2 channels
Channel positions : Front: L R
Sampling rate : 48.0 KHz
Frame rate : 31.250 fps (1536 spf)
Compression mode : Lossy
Stream size : 30.6 MiB (8%)
Alignment : Split accross interleaves
Interleave, duration : 42 ms (1.00 video frame)
Interleave, preload duration : 500 ms
Скриншоты



Внимание! Раздача ведётся путём добавления новых серий.

[color=brown]
Внимание! Раздача ведётся путём добавления новых серий; при каждом добавлении создётся новый торрент. Чтобы начать докачку новой серии, пользователям необходимо сделать следующее:
Остановить скачивание.
Удалить старый торрент у себя из клиента (старые серии удалять не надо).
Скачать новый торрент и запустить его у себя в клиенте вместо старого, при этом указать клиенту путь в старую папку куда и должно происходить скачивание новых серий.
Ваш клиент при этом должен произвести хеширование (проверку) старой папки (если не производит сам - помогите ему сделать это), и будет докачивать только те серии которых у вас ещё нет. Старые серии при этом не удаляются, а продолжают раздаваться!
Eсли вы уже удалили старые серии, то предотвратить повторную закачку старых серий можно, отжав галочку в соответсвующих местах при запуске нового торрента. По возможности, желательно не удалять старые серии как можно дольше чтобы релизёр не столько продолжал раздавать старые серии, а смог сконцентрироваться на новых.

Релиз от: OmckBird
Автор Bot
Категория Мультипликация
InfoHash 4220956229F79FB68B7EE7D90D168F79DB447F6D
Файлы (20)
Показать файлы
Трекера
Показать трекера
Похожие раздачи

    Нет комментариев

Войти на сайт

Статистика

  • Всего торрентов: 73736
  • Объёмом: 423.3 Тб
  • Сидов: 2094022
  • Личеров: 168410