Все раздачи Раздачи по тегам Правила Информация Контакты

Гонка / /Drive on NBCSN [S02] (2015) WEBRip 1080p | GreenРай Studio

Гонка / /Drive on NBCSN [S02] (2015) WEBRip 1080p | GreenРай Studio

Информация о фильме
Год выхода: 2015
Наименование: Гонка
Оригинальное наименование: /Drive on NBCSN
Жанр: ТВ-шоу, авто, документальный
Произведено: США
Режиссер постановщик: Джон-Фрэнсис Мусиал
В главных ролях: Мэтт Фарах, Крис Харрис, Майк Спинелли
О фильме: Телевизионная версия популярного youtube-шоу в котором рассматриваются и тестируются автомобили со всего света

Файл
Качество: WEBRip 1080p
Видео данные: MKV, 1920x1080 (16:9), 23.976 fps, 9243 Кбит/с
Аудио данные: AC3, 2 ch, 192 Кбит/с
Перевод: Любительский многоголосый (GreenРай Studio)
Продолжительность: 6 x 00:23:00
Медиаинфо
General
Unique ID : 233223359949347198009515711915991064368 (0xAF752F6D92C046D7AD81DF436C595F30)
Complete name : C:DownloadsDRIVE.S02.WEB-DL.1080pDRIVE.S02E01.WEB-DL.1080p.mkv
Format : Matroska
Format version : Version 4 / Version 2
File size : 1.56 GiB
Duration : 23 min 14 s
Overall bit rate : 9 627 kb/s
Encoded date : UTC 2018-05-11 08:06:21
Writing application : mkvmerge v6.5.0 ('Isn't she lovely') built on Oct 20 2013 12:50:05
Writing library : libebml v1.3.0 + libmatroska v1.4.1
Video
ID : 1
Format : AVC
Format/Info : Advanced Video Codec
Format profile : High@L3.1
Format settings : CABAC / 4 Ref Frames
Format settings, CABAC : Yes
Format settings, RefFrames : 4 frames
Codec ID : V_MPEG4/ISO/AVC
Duration : 23 min 14 s
Bit rate : 9 243 kb/s
Width : 1 920 pixels
Height : 1 080 pixels
Display aspect ratio : 16:9
Frame rate mode : Constant
Frame rate : 23.976 (23976/1000) FPS
Color space : YUV
Chroma subsampling : 4:2:0
Bit depth : 8 bits
Scan type : Progressive
Bits/(Pixel*Frame) : 0.186
Stream size : 1.50 GiB (96%)
Writing library : x264 core 146 r2538 121396c
Encoding settings : cabac=1 / ref=1 / deblock=1:0:0 / analyse=0x3:0x113 / me=hex / subme=2 / psy=1 / psy_rd=1.00:0.00 / mixed_ref=0 / me_range=16 / chroma_me=1 / trellis=0 / 8x8dct=1 / cqm=0 / deadzone=21,11 / fast_pskip=1 / chroma_qp_offset=0 / threads=9 / lookahead_threads=3 / sliced_threads=0 / nr=0 / decimate=1 / interlaced=0 / bluray_compat=0 / constrained_intra=0 / bframes=3 / b_pyramid=2 / b_adapt=1 / b_bias=0 / direct=1 / weightb=1 / open_gop=0 / weightp=1 / keyint=250 / keyint_min=23 / scenecut=40 / intra_refresh=0 / rc_lookahead=10 / rc=crf / mbtree=1 / crf=17.5 / qcomp=0.60 / qpmin=0 / qpmax=69 / qpstep=4 / ip_ratio=1.40 / aq=1:1.00
Default : Yes
Forced : No
Audio
ID : 2
Format : AC-3
Format/Info : Audio Coding 3
Codec ID : A_AC3
Duration : 23 min 14 s
Bit rate mode : Constant
Bit rate : 192 kb/s
Channel(s) : 2 channels
Channel positions : Front: L R
Sampling rate : 48.0 kHz
Frame rate : 31.250 FPS (1536 SPF)
Bit depth : 16 bits
Compression mode : Lossy
Stream size : 31.9 MiB (2%)
Service kind : Complete Main
Default : Yes
Forced : No

Внимание, имеется видео и аудио реклама от спонсора показа
Скриншоты

Релиз от:
Автор Bot
Категория Телевизор
InfoHash 2BA1287AA5283E24859D90E6A09FECCA6F0A15E7
Файлы (6)
Показать файлы
Трекера
Показать трекера
Похожие раздачи

    Нет комментариев

Войти на сайт

Статистика

  • Всего торрентов: 80764
  • Объёмом: 476.9 Тб
  • Сидов: 2210729
  • Личеров: 165752