A PHP Error was encountered

Severity: Notice

Message: Trying to get property 'id' of non-object

Filename: controllers/Torrent.php

Line Number: 25

Backtrace:

File: /home/torr/www/application/controllers/Torrent.php
Line: 25
Function: _error_handler

File: /home/torr/www/public/index.php
Line: 317
Function: require_once

Гонка / /Drive on NBCSN [S02] (2015) WEBRip 720p | GreenРай Studio | 4.9 Гб - ToRR.ws

Подождите, загружаю...

Все раздачи Раздачи по тегам Правила Информация Контакты

Гонка / /Drive on NBCSN [S02] (2015) WEBRip 720p | GreenРай Studio

Гонка / /Drive on NBCSN [S02] (2015) WEBRip 720p | GreenРай Studio

Информация о фильме
Год выхода: 2015
Наименование: Гонка
Оригинальное наименование: /Drive on NBCSN
Жанр: ТВ-шоу, авто, документальный
Произведено: США
Режиссер постановщик: Джон-Фрэнсис Мусиал
В главных ролях: Мэтт Фарах, Крис Харрис, Майк Спинелли
О фильме: Телевизионная версия популярного youtube-шоу в котором рассматриваются и тестируются автомобили со всего света

Файл
Качество: WEBRip 720p
Видео данные: MKV, 1280x720 (16:9), 23.976 fps, 4323 Кбит/с
Аудио данные: AC3, 2 ch, 192 Кбит/с
Перевод: Любительский многоголосый (GreenРай Studio)
Продолжительность: 6 x 00:23:00
Медиаинфо
General
Unique ID : 233332501562383610856776182142658880736 (0xAF8A34866656C320BC4216F07CCF24E0)
Complete name : C:DownloadsDRIVE.S02.WEB-DL.720pDRIVE.S02E01.WEB-DL.720p.mkv
Format : Matroska
Format version : Version 2
File size : 766 MiB
Duration : 23 min 14 s
Overall bit rate : 4 607 kb/s
Encoded date : UTC 2018-05-11 08:17:45
Writing application : mkvmerge v7.8.0 ('River Man') 32bit built on Apr 3 2015 12:11:22
Writing library : libebml v1.3.1 + libmatroska v1.4.2
Video
ID : 1
Format : AVC
Format/Info : Advanced Video Codec
Format profile : High@L3.1
Format settings : CABAC / 4 Ref Frames
Format settings, CABAC : Yes
Format settings, RefFrames : 4 frames
Codec ID : V_MPEG4/ISO/AVC
Duration : 23 min 14 s
Bit rate : 4 323 kb/s
Width : 1 280 pixels
Height : 720 pixels
Display aspect ratio : 16:9
Frame rate mode : Constant
Frame rate : 23.976 FPS
Color space : YUV
Chroma subsampling : 4:2:0
Bit depth : 8 bits
Scan type : Progressive
Bits/(Pixel*Frame) : 0.196
Stream size : 719 MiB (94%)
Writing library : x264 core 146 r2538 121396c
Encoding settings : cabac=1 / ref=1 / deblock=1:0:0 / analyse=0x3:0x113 / me=hex / subme=2 / psy=1 / psy_rd=1.00:0.00 / mixed_ref=0 / me_range=16 / chroma_me=1 / trellis=0 / 8x8dct=1 / cqm=0 / deadzone=21,11 / fast_pskip=1 / chroma_qp_offset=0 / threads=18 / lookahead_threads=5 / sliced_threads=0 / nr=0 / decimate=1 / interlaced=0 / bluray_compat=0 / constrained_intra=0 / bframes=3 / b_pyramid=2 / b_adapt=1 / b_bias=0 / direct=1 / weightb=1 / open_gop=0 / weightp=1 / keyint=250 / keyint_min=23 / scenecut=40 / intra_refresh=0 / rc_lookahead=10 / rc=crf / mbtree=1 / crf=16.5 / qcomp=0.60 / qpmin=0 / qpmax=69 / qpstep=4 / ip_ratio=1.40 / aq=1:1.00
Default : Yes
Forced : No
Audio
ID : 2
Format : AC-3
Format/Info : Audio Coding 3
Codec ID : A_AC3
Duration : 23 min 14 s
Bit rate mode : Constant
Bit rate : 192 kb/s
Channel(s) : 2 channels
Channel positions : Front: L R
Sampling rate : 48.0 kHz
Frame rate : 31.250 FPS (1536 SPF)
Bit depth : 16 bits
Compression mode : Lossy
Stream size : 31.9 MiB (4%)
Service kind : Complete Main
Default : Yes
Forced : No

Внимание, имеется видео и аудио реклама от спонсора показа
Скриншоты

Релиз от:
Автор Bot
Категория Телевизор
InfoHash E8B5E751EED0C0FEC3CC6DF53B41131B3A4F76BD
Файлы (6)
Показать файлы
Трекера
Показать трекера
Похожие раздачи

    Нет комментариев

Войти на сайт

Статистика

  • Всего торрентов: 73736
  • Объёмом: 423.3 Тб
  • Сидов: 2094022
  • Личеров: 168410