A PHP Error was encountered

Severity: Notice

Message: Trying to get property 'id' of non-object

Filename: controllers/Torrent.php

Line Number: 25

Backtrace:

File: /home/torr/www/application/controllers/Torrent.php
Line: 25
Function: _error_handler

File: /home/torr/www/public/index.php
Line: 317
Function: require_once

Роман и Франческа (1960) DVDRip | 1.1 Гб - ToRR.ws

Подождите, загружаю...

Все раздачи Раздачи по тегам Правила Информация Контакты

Роман и Франческа (1960) DVDRip

Роман и Франческа (1960) DVDRip

Страна: СССР
Производство: Киностудия им. Довженко
Жанр: мелодрама
Год выпуска: 1960
Продолжительность: 01:29:54
Перевод: Не требуется
Cубтитры: нет
Оригинальная аудиодорожка: русский
Режиссер: Владимир Денисенко
В ролях:
Павел Морозенко, Людмила Гурченко, Анатолий Скибенко, Михаил Заднепровский, Софья Карамаш, Сергей Петров, Н. Журавлёв, Лев Олевский, Пётр Вескляров, Оля Машек, Николай Рушковский, Татьяна Бестаева, Алексей Смирнов...
Об актёрах подробней
Описание:
В итальянский порт прищёл торговый советский корабль. Моряк Роман (Павел Морозенко) сошёл на берег. На одной из площадей он услышал пение. Это пела Франческа (Людмила Гурченко). Моряк был восхищен её голосом и красотой. Долго бродили они в тот день по старинным улицам и площадям. А наутро началась война. Советскому судну нужно было срочно возвращаться на родину. Трудно было расставаться влюблённым, но они верят, что обязательно встретятся.


Источник: DVD5 R5
Качество видео: DVDRip
Формат видео: AVI
Видео: 688х512 (4:3), 25 fps, XviD ~ 1339 kbps avg, 0.152 bit/pixel
Аудио: 48 kHz, Dolby Digital AC3 5.1, 384 kbps
Раздача от:
MediaInfo

Общее
Полное имя : Roman.i.Francheska.1960.DVDRip_[New-team]_by_AVP_Studio.avi
Формат : AVI
Формат/Информация : Audio Video Interleave
Размер файла : 1,09 Гбайт
Продолжительность : 1 ч. 29 м.
Общий поток : 1733 Кбит/сек
Программа кодирования : VirtualDubMod 1.5.10.3 | www.virtualdub-fr.org || (build 2550/release)
Библиотека кодирования : VirtualDubMod build 2550/release
Видео
Идентификатор : 0
Формат : MPEG-4 Visual
Профиль формата : Advanced Simple@L5
Настройки формата : BVOP1 / Custom Matrix
Параметр BVOP формата : 1
Параметр QPel формата : Нет
Параметр GMC формата : Без точки перехода
Параметр матрицы формата : Выборочная
Идентификатор кодека : XVID
Идентификатор кодека/Подсказка : XviD
Продолжительность : 1 ч. 29 м.
Битрейт : 1339 Кбит/сек
Ширина : 688 пикселей
Высота : 512 пикселей
Соотношение сторон : 4:3
Частота кадров : 25,000 кадров/сек
Цветовое пространство : YUV
Субдискретизация насыщенности : 4:2:0
Битовая глубина : 8 бит
Тип развёртки : Прогрессивная
Метод сжатия : С потерями
Бит/(Пиксели*Кадры) : 0.152
Размер потока : 861 Мбайт (77%)
Библиотека кодирования : XviD 73
Аудио
Идентификатор : 1
Формат : AC-3
Формат/Информация : Audio Coding 3
Идентификатор кодека : 2000
Продолжительность : 1 ч. 29 м.
Вид битрейта : Постоянный
Битрейт : 384 Кбит/сек
Каналы : 6 каналов
Расположение каналов : Front: L C R, Side: L R, LFE
Частота : 48,0 КГц
Частота кадров : 31,250 кадров/сек (1536 SPF)
Битовая глубина : 16 бит
Метод сжатия : С потерями
Размер потока : 247 Мбайт (22%)
Выравнивание : Разделение по промежуткам
Продолжительность промежутка : 40 мс. (1,00 видеокадр)
Время предзагрузки промежутка : 500 мс

Скриншоты


Автор Bot
Категория Наши фильмы
InfoHash F778D67A04A3F04A86A5150C2EEE111CA95C2894
Файлы (1)
Показать файлы
Трекера
Показать трекера
Похожие раздачи
Название Добавлен Размер Сид Лич
Роман и Франческа (1960) DVDRip-AVC 16/05/2018 1.1 Гб 21 4

    Нет комментариев

Войти на сайт

Статистика

  • Всего торрентов: 73736
  • Объёмом: 423.3 Тб
  • Сидов: 2094022
  • Личеров: 168410