A PHP Error was encountered

Severity: Notice

Message: Trying to get property 'id' of non-object

Filename: controllers/Torrent.php

Line Number: 25

Backtrace:

File: /home/torr/www/application/controllers/Torrent.php
Line: 25
Function: _error_handler

File: /home/torr/www/public/index.php
Line: 317
Function: require_once

Роман и Франческа (1960) DVDRip-AVC | 1.1 Гб - ToRR.ws

Подождите, загружаю...

Все раздачи Раздачи по тегам Правила Информация Контакты

Роман и Франческа (1960) DVDRip-AVC

Роман и Франческа (1960) DVDRip-AVC

Страна: СССР
Производство: Киностудия им. Довженко
Жанр: мелодрама
Год выпуска: 1960
Продолжительность: 01:29:54
Перевод: Не требуется
Cубтитры: нет
Оригинальная аудиодорожка: русский
Режиссер: Владимир Денисенко
В ролях:
Павел Морозенко, Людмила Гурченко, Анатолий Скибенко, Михаил Заднепровский, Софья Карамаш, Сергей Петров, Н. Журавлёв, Лев Олевский, Пётр Вескляров, Оля Машек, Николай Рушковский, Татьяна Бестаева, Алексей Смирнов...
Об актёрах подробней
Описание:
В итальянский порт прищёл торговый советский корабль. Моряк Роман (Павел Морозенко) сошёл на берег. На одной из площадей он услышал пение. Это пела Франческа (Людмила Гурченко). Моряк был восхищен её голосом и красотой. Долго бродили они в тот день по старинным улицам и площадям. А наутро началась война. Советскому судну нужно было срочно возвращаться на родину. Трудно было расставаться влюблённым, но они верят, что обязательно встретятся.


Источник: DVD5 R5
Качество видео: DVDRip-AVC
Формат видео: MKV
Видео: 692->760х570 (4:3), 25 fps, H264 ~ 1348 kbps avg, 0.137 bit/pixel
Аудио: 48 kHz, Dolby Digital AC3 5.1, 384 kbps
Раздача от:
MediaInfo

Общее
Полное имя : Roman.i.Francheska.1960.DVDRip-AVC_[New-team]_by_AVP_Studio.mkv
Формат : Matroska
Версия формата : Version 2
Размер файла : 1,09 Гбайт
Продолжительность : 1 ч. 29 м.
Общий поток : 1734 Кбит/сек
Дата кодирования : UTC 2018-05-12 14:05:44
Программа кодирования : mkvmerge v6.1.0 ('Old Devil') built on Mar 4 2013 09:10:42
Библиотека кодирования : libebml v1.3.0 + libmatroska v1.4.0
Видео
Идентификатор : 1
Формат : AVC
Формат/Информация : Advanced Video Codec
Профиль формата : High@L4.1
Настройки формата : CABAC / 10 Ref Frames
Параметр CABAC формата : Да
Параметр RefFrames формата : 10 кадров
Идентификатор кодека : V_MPEG4/ISO/AVC
Продолжительность : 1 ч. 29 м.
Битрейт : 1348 Кбит/сек
Ширина : 692 пикселя
Высота : 570 пикселей
Соотношение сторон : 4:3
Режим частоты кадров : Постоянный
Частота кадров : 25,000 кадров/сек
Цветовое пространство : YUV
Субдискретизация насыщенности : 4:2:0
Битовая глубина : 8 бит
Тип развёртки : Прогрессивная
Бит/(Пиксели*Кадры) : 0.137
Размер потока : 846 Мбайт (76%)
Библиотека кодирования : x264 core 130 r2273 b3065e6
Настройки программы : cabac=1 / ref=10 / deblock=1:-2:-1 / analyse=0x3:0x113 / me=umh / subme=10 / psy=1 / psy_rd=1.00:0.00 / mixed_ref=1 / me_range=32 / chroma_me=1 / trellis=2 / 8x8dct=1 / cqm=0 / deadzone=21,11 / fast_pskip=1 / chroma_qp_offset=-2 / threads=6 / lookahead_threads=1 / sliced_threads=0 / nr=0 / decimate=0 / interlaced=0 / bluray_compat=0 / constrained_intra=0 / bframes=8 / b_pyramid=2 / b_adapt=2 / b_bias=0 / direct=3 / weightb=1 / open_gop=0 / weightp=2 / keyint=250 / keyint_min=25 / scenecut=40 / intra_refresh=0 / rc=2pass / mbtree=0 / bitrate=1348 / ratetol=1.0 / qcomp=0.60 / qpmin=0 / qpmax=69 / qpstep=4 / cplxblur=20.0 / qblur=0.5 / ip_ratio=1.40 / pb_ratio=1.30 / aq=1:1.00
Default : Да
Forced : Нет
Аудио
Идентификатор : 2
Формат : AC-3
Формат/Информация : Audio Coding 3
Идентификатор кодека : A_AC3
Продолжительность : 1 ч. 29 м.
Вид битрейта : Постоянный
Битрейт : 384 Кбит/сек
Каналы : 6 каналов
Расположение каналов : Front: L C R, Side: L R, LFE
Частота : 48,0 КГц
Частота кадров : 31,250 кадров/сек (1536 SPF)
Битовая глубина : 16 бит
Метод сжатия : С потерями
Размер потока : 247 Мбайт (22%)
Default : Да
Forced : Нет

Скриншоты


Автор Bot
Категория Наши фильмы
InfoHash 1BD2BB566BCF4D614E82115E368C55729A72562B
Файлы (1)
Показать файлы
Трекера
Показать трекера
Похожие раздачи
Название Добавлен Размер Сид Лич
Роман и Франческа (1960) DVDRip 16/05/2018 1.1 Гб 5 2

    Нет комментариев

Войти на сайт

Статистика

  • Всего торрентов: 73739
  • Объёмом: 423.3 Тб
  • Сидов: 2094022
  • Личеров: 168410