A PHP Error was encountered

Severity: Notice

Message: Trying to get property 'id' of non-object

Filename: controllers/Torrent.php

Line Number: 25

Backtrace:

File: /home/torr/www/application/controllers/Torrent.php
Line: 25
Function: _error_handler

File: /home/torr/www/public/index.php
Line: 317
Function: require_once

Kiss - Exposed (1987) DVDRip-AVC DrVampir | 1.5 Гб - ToRR.ws

Подождите, загружаю...

Все раздачи Раздачи по тегам Правила Информация Контакты

Kiss - Exposed (1987) DVDRip-AVC DrVampir

Kiss - Exposed (1987) DVDRip-AVC DrVampir

Информация о фильме
Название: Kiss - Exposed
Год выхода: 1987
Жанр: Hard Rock
Режиссер: Claude Borenzweig
В ролях: Kiss
Содержание:
Скрытый текст
01. Who Wants to be Lonely - Video 1986
02. Uh! All Night - Video 1986
03. I Love It Loud - Live Rio de Janeiro 1983
04. Deuce - Live San Francisco 1975
05. Strutter - Live Detroit 1976
06. Beth - Live Houston 1977
07. Detroit Rock City - Live Australia 1980
08. Tears Are Falling - Video 1985
09. Lick It Up - Video 1983
10. All Hell`s Breakin` Loose - Video 1984
11. I Love It Loud - Video 1982
12. I Stole Your Love - Live Houston 1977
13. Heaven`s On Fire - Video 1984
14. Ladies Room - Live Houston 1977
15. Rock and Roll All Nite - Live Australia 1980

Официальный сайт
Страна: США
Продолжительность: 01:30:49
Перевод: Любительский одноголосый
Файл
Кодек: h.264
Качество: DVDRip-AVC
Видео: MPEG-4, 704x480, 29.970 fps ~2036 kbps
Звук: AC3 2 ch, 48 kHz ~256 kbps - VO
Media Info:
Скрытый текст
General
Unique ID : 313969868017982421521032029706864954465 (0xEC3465A4BFA3F3D8EB5CC21E09960C61)
Complete name : K:#Муз. видеоKISSKiss - Exposed (1987).mkv
Format : Matroska
Format version : Version 4 / Version 2
File size : 1.46 GiB
Duration : 1 h 30 min
Overall bit rate : 2 295 kb/s
Movie name : Kiss - Exposed (1987) DVDRip-AVC от DrVampir
Encoded date : UTC 2018-05-11 09:19:46 / UTC 2018-05-07T04:47:58Z
Writing application : mkvmerge v23.0.0 ('The Bride Said No') 64-bit
Writing library : libebml v1.3.6 + libmatroska v1.4.9 / Lavf57.7.2
Cover : Yes
Attachments : Cover.jpg
Video
ID : 1
Format : AVC
Format/Info : Advanced Video Codec
Format profile : High@L4.1
Format settings : CABAC / 12 Ref Frames
Format settings, CABAC : Yes
Format settings, ReFrames : 12 frames
Codec ID : V_MPEG4/ISO/AVC
Duration : 1 h 30 min
Bit rate : 2 036 kb/s
Width : 704 pixels
Height : 480 pixels
Display aspect ratio : 4:3
Original display aspect rat : 4:3
Frame rate mode : Constant
Frame rate : 29.970 (30000/1001) FPS
Standard : NTSC
Color space : YUV
Chroma subsampling : 4:2:0
Bit depth : 8 bits
Scan type : Progressive
Bits/(Pixel*Frame) : 0.201
Stream size : 1.26 GiB (87%)
Title : MPEG-4, 704x480, 29.970 fps ~2036 kbps
Writing library : x264 core 155 r2893 b00bcaf
Encoding settings : cabac=1 / ref=12 / deblock=1:-3:-2 / analyse=0x3:0x133 / me=umh / subme=11 / psy=1 / psy_rd=1.00:0.15 / mixed_ref=1 / me_range=32 / chroma_me=1 / trellis=2 / 8x8dct=1 / cqm=0 / deadzone=21,11 / fast_pskip=0 / chroma_qp_offset=-3 / threads=6 / lookahead_threads=1 / sliced_threads=0 / nr=0 / decimate=1 / interlaced=0 / bluray_compat=0 / constrained_intra=0 / bframes=14 / b_pyramid=2 / b_adapt=2 / b_bias=0 / direct=3 / weightb=1 / open_gop=0 / weightp=2 / keyint=300 / keyint_min=30 / scenecut=40 / intra_refresh=0 / rc_lookahead=80 / rc=2pass / mbtree=0 / bitrate=2036 / ratetol=1.0 / qcomp=0.60 / qpmin=0 / qpmax=69 / qpstep=4 / cplxblur=20.0 / qblur=0.5 / vbv_maxrate=62500 / vbv_bufsize=78125 / nal_hrd=none / filler=0 / ip_ratio=1.40 / pb_ratio=1.30 / aq=1:1.00
Language : English
Default : Yes
Forced : No
Color range : Limited
Color primaries : BT.601 NTSC
Transfer characteristics : BT.709
Matrix coefficients : BT.601
Statistics Tags Issue : mkvmerge v23.0.0 ('The Bride Said No') 64-bit 2018-05-11 09:19:46 / mkvmerge v23.0.0 ('The Bride Said No') 64-bit 2018-05-11 09:19:46 / UTC 2018-05-07T04:47:58Z
FromStats_BitRate : 2036655
FromStats_Duration : 01:30:49.443000000
FromStats_FrameCount : 163320
FromStats_StreamSize : 1387329452
Audio
ID : 2
Format : AC-3
Format/Info : Audio Coding 3
Codec ID : A_AC3
Duration : 1 h 30 min
Bit rate mode : Constant
Bit rate : 256 kb/s
Channel(s) : 2 channels
Channel positions : Front: L R
Sampling rate : 48.0 kHz
Frame rate : 31.250 FPS (1536 SPF)
Bit depth : 16 bits
Compression mode : Lossy
Delay relative to video : -67 ms
Stream size : 166 MiB (11%)
Title : AC3 2 ch, 48 kHz ~256 kbps - VO
Language : Russian
Service kind : Complete Main
Default : Yes
Forced : No
Statistics Tags Issue : mkvmerge v23.0.0 ('The Bride Said No') 64-bit 2018-05-11 09:19:46 / mkvmerge v23.0.0 ('The Bride Said No') 64-bit 2018-05-11 09:19:46 / UTC 2018-05-07T04:47:58Z
FromStats_BitRate : 256000
FromStats_Duration : 01:30:49.472000000
FromStats_FrameCount : 170296
FromStats_StreamSize : 174383104
Menu
00:00:00.067 : :Chapter 1
00:03:52.999 : :Chapter 2
00:07:37.424 : :Chapter 3
00:09:41.147 : :Chapter 4
00:13:23.436 : :Chapter 5
00:19:11.350 : :Chapter 6
00:22:19.205 : :Chapter 7
00:26:38.263 : :Chapter 8
00:30:19.084 : :Chapter 9
00:33:39.885 : :Chapter 10
00:35:23.288 : :Chapter 11
00:37:25.210 : :Chapter 12
00:41:52.977 : :Chapter 13
00:45:31.195 : :Chapter 14
00:49:15.820 : :Chapter 15
00:51:05.229 : :Chapter 16
00:54:46.717 : :Chapter 17
00:58:15.158 : :Chapter 18
01:02:24.007 : :Chapter 19
01:04:11.014 : :Chapter 20
01:08:16.459 : :Chapter 21
01:10:07.203 : :Chapter 22
01:13:25.067 : :Chapter 23
01:14:01.203 : :Chapter 24
01:17:11.894 : :Chapter 25
01:19:19.922 : :Chapter 26
01:21:40.863 : :Chapter 27
01:24:57.759 : :Chapter 28
Скриншоты
Автор Bot
Категория Музыка
InfoHash 4C4F33400AD82D20BFD36D066E7B7BFCDF8F1134
Файлы (1)
Показать файлы
Трекера
Показать трекера

    Нет комментариев

Войти на сайт

Статистика

  • Всего торрентов: 73736
  • Объёмом: 423.3 Тб
  • Сидов: 2094022
  • Личеров: 168410