Все раздачи Раздачи по тегам Правила Информация Контакты

К нам приехал... - Павел Кашин [01.03] (2018) WEBRip

К нам приехал... - Павел Кашин [01.03] (2018) WEBRip

Исполнитель: Павел Кашин.
Жанр: POP
Год выпуска: 2018
Продолжительность: 01:24:25
Описание: "К нам приехал" - музыкальная программа телеканала "Ля Минор", дарящая телезрителям радость встречи с полюбившимися исполнителями, а также знакомящая их с новыми музыкальными дарованиями и талантами, которые в прямом эфире отвечают на вопросы и исполняют свои лучшие и совершенно новые песни. В этом выпуске в гостях у Виталия Волина - Павел Кашин.
Эфир 1 марта 2018 года.
Формат: MKV
Качество: WEBRip
Видео кодек: H.264
Аудио кодек: AAC
Видео: H.264, ~1 800 Kbps, 768x416 (16:9), 25fps
Аудио: AAC, 48000Hz, 2ch, 192 kbps
MedaInfo
Kashin_01.03.18.mkv
Format : Matroska
Format version : Version 4 / Version 2
File size : 1.18 GiB
Duration : 1 h 24 min
Overall bit rate : 1 998 kb/s
Encoded date : UTC 2018-05-16 15:26:49
Writing application : mkvmerge v21.0.0 ('Tardigrades Will Inherit The Earth') 64-bit
Writing library : libebml v1.3.5 + libmatroska v1.4.8 / Lavf57.83.100
Video
ID : 1
Format : AVC
Format/Info : Advanced Video Codec
Format profile : Main@L3
Format settings : CABAC / 1 Ref Frames
Format settings, CABAC : Yes
Format settings, ReFrames : 1 frame
Format settings, GOP : M=1, N=12
Codec ID : V_MPEG4/ISO/AVC
Duration : 1 h 24 min
Bit rate : 1 798 kb/s
Width : 768 pixels
Height : 416 pixels
Display aspect ratio : 16:9
Original display aspect ratio : 16:9
Frame rate mode : Constant
Frame rate : 25.000 FPS
Standard : Component
Color space : YUV
Chroma subsampling : 4:2:0
Bit depth : 8 bits
Scan type : Progressive
Bits/(Pixel*Frame) : 0.225
Stream size : 1.06 GiB (90%)
Default : Yes
Forced : No
Color range : Limited
Audio
ID : 2
Format : AAC
Format/Info : Advanced Audio Codec
Format profile : LC
Codec ID : A_AAC-2
Duration : 1 h 24 min
Bit rate : 196 kb/s
Channel(s) : 2 channels
Channel positions : Front: L R
Sampling rate : 48.0 kHz
Frame rate : 46.875 FPS (1024 SPF)
Compression mode : Lossy
Stream size : 119 MiB (10%)
Language : Russian
Default : Yes
Forced : No
Скриншоты

Автор Bot
Категория Музыка
InfoHash 307A7C823EC5BA721EA4E6A977BC981009C54E09
Файлы (1)
Показать файлы
Трекера
Показать трекера
Похожие раздачи
Название Добавлен Размер Сид Лич
К нам приехал... - Павел Кашин [01.03] (2018) WEBRip 12/04/2018 1.2 Гб 0 0

    Нет комментариев

Войти на сайт

Статистика

  • Всего торрентов: 80764
  • Объёмом: 476.9 Тб
  • Сидов: 2210725
  • Личеров: 165745