Все раздачи Раздачи по тегам Правила Информация Контакты

Гарольд и Мод / Harold and Maude (1971) BDRemux 1080р | L1

Гарольд и Мод / Harold and Maude (1971) BDRemux 1080р | L1

Информация о фильме
Название: Гарольд и Мод
Оригинальное название: Harold and Maude
Год выхода: 1971
Жанр: драма, мелодрама, комедия
Режиссер: Хэл Эшби
В ролях: Рут Гордон, Бад Корт, Вивиан Пиклз, Сирил Кьюсак, Чарльз Тайнер, Эллен Гир, Эрик Кристмас, Дж. Вуд, Джуди Энглс, Шари Саммерс, Том Скеррит, Хэл Эшби, Марджори Итон, Уильям Лаккинг
Описание: Гарольд — сын миссис Чэйзен, богатой женщины, которая не обращает на него внимания. Страдая от депрессии и отсутствия друзей, он инсценирует тщательно продуманные, но смехотворные самоубийства, которые на рассеянную маму никакого впечатления не производят. Очарованный смертью и всей ее внешней атрибутикой, Гарольд на старом катафалке сам разъезжает по кладбищам вокруг городка. На двух похоронах подряд он встречает Мод, старушку 79 лет, выжившую после концлагеря и очарованную жизнью в той же степени, что Гарольд очарован смертью. Свободная духом, она является прямой противоположностью торжественному и важному Гарольду. Тем не менее они становятся лучшими друзьями, и она вселяет в него желание жить, расправить крылья, наслаждаться кратким пребыванием на Земле. Проходит время, они вместе переживают несколько забавных и сумасбродных приключений, и дружба перерастает в любовь — к большому беспокойству мамы Гарольда.

Страна: США
Продолжительность: 01:31:44
Перевод: Любительский (одноголосый закадровый)
Субтитры: русские Helen Mirren, русские Геннадий Белый, английские
Оригинальная аудиодорожка: английский
Файл
Качество: BDRemux 1080р
Видео: AVC / 1920x1080 / 16:9 / 23.976 fps / 34894 Kbps / High@L4.1
Аудио 1: Rus: AC3 / 48.0 KHz / 2.0 / 192 kbps / VO
Аудио 2: Eng: FLAC / 48.0 KHz / 2.0 / 1260 kbps / 24 bit
Аудио 3: Eng: AC3 / 48.0 KHz / 2.0 / 192 kbps / Commentary
Скриншоты

MediaInfo
Общее
Уникальный идентификатор : 230749347295624158884696954208713360087 (0xAD98B52FC9DDB630BD9A4334F722C2D7)
Полное имя : Harold.and.Maude.1971.Criterion.Collection.BDRemux.1080p.mkv
Формат : Matroska
Версия формата : Version 4 / Version 2
Размер файла : 23,4 Гбайт
Продолжительность : 1 ч. 31 м.
Режим общего битрейта : Переменный
Общий поток : 36,5 Мбит/сек
Название фильма : Harold.and.Maude.1971.Criterion.Collection.BDRemux.1080p-porvaliparus
Дата кодирования : UTC 2017-11-12 21:59:33
Программа кодирования : mkvmerge v17.0.0 ('Be Ur Friend') 64-bit
Библиотека кодирования : libebml v1.3.5 + libmatroska v1.4.8
Видео
Идентификатор : 1
Формат : AVC
Формат/Информация : Advanced Video Codec
Профиль формата : High@L4.1
Настройки формата : CABAC / 4 Ref Frames
Параметр CABAC формата : Да
Параметр RefFrames формата : 4 кадра
Идентификатор кодека : V_MPEG4/ISO/AVC
Продолжительность : 1 ч. 31 м.
Вид битрейта : Переменный
Битрейт : 34,9 Мбит/сек
Максимальный битрейт : 37,0 Мбит/сек
Ширина : 1920 пикселей
Высота : 1080 пикселей
Соотношение сторон : 16:9
Режим частоты кадров : Постоянный
Частота кадров : 23,976 (24000/1001) кадра/сек
Цветовое пространство : YUV
Субдискретизация насыщенности : 4:2:0
Битовая глубина : 8 бит
Тип развёртки : Прогрессивная
Бит/(Пиксели*Кадры) : 0.702
Размер потока : 22,4 Гбайт (95%)
Заголовок : Harold.and.Maude.1971.Criterion.Collection.BDRemux.1080p
Default : Да
Forced : Нет
Аудио #1
Идентификатор : 2
Формат : AC-3
Формат/Информация : Audio Coding 3
Идентификатор кодека : A_AC3
Продолжительность : 1 ч. 31 м.
Вид битрейта : Постоянный
Битрейт : 192 Кбит/сек
Каналы : 2 канала
Расположение каналов : Front: L R
Частота : 48,0 КГц
Частота кадров : 31,250 кадров/сек (1536 SPF)
Битовая глубина : 16 бит
Метод сжатия : С потерями
Размер потока : 126 Мбайт (1%)
Заголовок : VO
Язык : Russian
Default : Да
Forced : Нет
Аудио #2
Идентификатор : 3
Формат : FLAC
Формат/Информация : Free Lossless Audio Codec
Идентификатор кодека : A_FLAC
Продолжительность : 1 ч. 31 м.
Вид битрейта : Переменный
Битрейт : 1260 Кбит/сек
Каналы : 2 канала
Расположение каналов : Front: L R
Частота : 48,0 КГц
Частота кадров : 11,719 кадров/сек (4096 SPF)
Битовая глубина : 24 бит
Размер потока : 827 Мбайт (3%)
Библиотека кодирования : libFLAC 20080709 (UTC 2008-07-09)
Язык : English
Default : Нет
Forced : Нет
Аудио #3
Идентификатор : 4
Формат : AC-3
Формат/Информация : Audio Coding 3
Идентификатор кодека : A_AC3
Продолжительность : 1 ч. 31 м.
Вид битрейта : Постоянный
Битрейт : 192 Кбит/сек
Каналы : 2 канала
Расположение каналов : Front: L R
Частота : 48,0 КГц
Частота кадров : 31,250 кадров/сек (1536 SPF)
Битовая глубина : 16 бит
Метод сжатия : С потерями
Размер потока : 126 Мбайт (1%)
Заголовок : Commentary
Язык : English
Default : Нет
Forced : Нет
Текст #1
Идентификатор : 5
Формат : UTF-8
Идентификатор кодека : S_TEXT/UTF8
Идентификатор кодека/Информация : UTF-8 Plain Text
Продолжительность : 1 ч. 30 м.
Битрейт : 90 бит/сек
ElementCount : 1171
Размер потока : 59,9 Кбайт (0%)
Заголовок : Helen Mirren
Язык : Russian
Default : Нет
Forced : Нет
Текст #2
Идентификатор : 6
Формат : UTF-8
Идентификатор кодека : S_TEXT/UTF8
Идентификатор кодека/Информация : UTF-8 Plain Text
Продолжительность : 1 ч. 30 м.
Битрейт : 90 бит/сек
ElementCount : 1376
Размер потока : 60,0 Кбайт (0%)
Заголовок : Геннадий Белый
Язык : Russian
Default : Нет
Forced : Нет
Текст #3
Идентификатор : 7
Формат : UTF-8
Идентификатор кодека : S_TEXT/UTF8
Идентификатор кодека/Информация : UTF-8 Plain Text
Продолжительность : 1 ч. 30 м.
Битрейт : 58 бит/сек
ElementCount : 1198
Размер потока : 38,3 Кбайт (0%)
Язык : English
Default : Нет
Forced : Нет
Меню
00:00:00.000 : en:00:00:00.000
00:05:44.344 : en:00:05:44.344
00:07:31.785 : en:00:07:31.785
00:10:13.112 : en:00:10:13.112
00:12:40.259 : en:00:12:40.259
00:15:15.998 : en:00:15:15.998
00:18:43.456 : en:00:18:43.456
00:21:17.109 : en:00:21:17.109
00:27:34.695 : en:00:27:34.695
00:30:40.964 : en:00:30:40.964
00:36:11.961 : en:00:36:11.961
00:41:36.619 : en:00:41:36.619
00:46:48.681 : en:00:46:48.681
00:48:32.535 : en:00:48:32.535
00:54:37.149 : en:00:54:37.149
00:58:52.696 : en:00:58:52.696
01:00:48.061 : en:01:00:48.061
01:06:52.008 : en:01:06:52.008
01:10:48.119 : en:01:10:48.119
01:16:17.823 : en:01:16:17.823
01:20:01.588 : en:01:20:01.588
01:22:50.340 : en:01:22:50.340
01:26:01.323 : en:01:26:01.323
Автор Bot
Категория Зарубежные фильмы
InfoHash A4625D415829A3EAC939C17C44C0D1DB4F12891E
Файлы (1)
Показать файлы
Трекера
Показать трекера
Похожие раздачи
Название Добавлен Размер Сид Лич
Гарольд и Кумар: Трилогия / Harold & Kumar: Trilogy (2004-2011) BDRip 720p | D, P, P2, A, L1 31/03/2018 17.9 Гб 12 14

    Нет комментариев

Войти на сайт

Статистика

  • Всего торрентов: 80764
  • Объёмом: 476.9 Тб
  • Сидов: 2210774
  • Личеров: 165725