Все раздачи Раздачи по тегам Правила Информация Контакты

Мёртвоголовые / Deadheads (2011) BDRip-AVC | L1

Мёртвоголовые / Deadheads (2011) BDRip-AVC | L1

Информация о фильме
Название: Мёртвоголовые
Оригинальное название: Deadheads
Год выхода: 2011
Жанр: Ужасы, комедия, приключения
Режиссер: Бретт Пирс, Дрю Т. Пирс
В ролях: Росс Киддер, Маркус Тейлор, Томас Джалассо, Натали Виктория, Бенжамин Уэбстер, Грег Дау, Леонард Келли-Янг
О фильме :
Два мертвеца, Майк и Брент, восстали из мертвых и теперь они зомби. Парни отправляются на поиски потерянной любви, которую так и не обрели при жизни. Они решают путешествововать автостопом через страну, и их на пути ожидают смешные ситуации и захватывающие приключения!

Выпущено: США
Продолжительность: 01:34:50
Озвучивание: Любительское (одноголосое) Den904
Файл
Формат: MKV
Качество: BDRip-AVC (BDRemux 1080p)
Видео: MPEG-4 AVC, 736x416, ~ 1022 Кбит/с
Аудио: AAC-LC, 2 ch, ~ 76 Кбит/с
MI
Общее
Уникальный идентификатор : 182362252466757339611008441405450167906 (0x8931B138F1F237E291D896DE93CF2662)
Полное имя : D:MOVIESDeadheads.2011.ExKinoRay.mkv
Формат : Matroska
Версия формата : Version 4 / Version 2
Размер файла : 745 Мбайт
Продолжительность : 1 ч. 34 м.
Общий поток : 1098 Кбит/сек
Дата кодирования : UTC 2017-11-13 11:24:20
Программа кодирования : mkvmerge v15.0.0 ('Duel with the Devil') 64-bit
Библиотека кодирования : libebml v1.3.5 + libmatroska v1.4.5
Видео
Идентификатор : 1
Формат : AVC
Формат/Информация : Advanced Video Codec
Профиль формата : High@L4.1
Параметр CABAC формата : Да
Параметр RefFrames формата : 10 кадров
Идентификатор кодека : V_MPEG4/ISO/AVC
Продолжительность : 1 ч. 34 м.
Битрейт : 1022 Кбит/сек
Ширина : 736 пикселей
Высота : 416 пикселей
Соотношение сторон : 16:9
Режим частоты кадров : Постоянный
Частота кадров : 23,976 (24000/1001) кадра/сек
Цветовое пространство : YUV
Субдискретизация насыщенности : 4:2:0
Битовая глубина : 8 бит
Тип развёртки : Прогрессивная
Бит/(Пиксели*Кадры) : 0.139
Размер потока : 692 Мбайт (93%)
Библиотека кодирования : x264 core 152 r2851 ba24899
Настройки программы : cabac=1 / ref=10 / deblock=1:-2:-2 / analyse=0x3:0x133 / me=umh / subme=11 / psy=1 / psy_rd=1.00:0.10 / mixed_ref=1 / me_range=32 / chroma_me=1 / trellis=2 / 8x8dct=1 / cqm=0 / deadzone=21,11 / fast_pskip=0 / chroma_qp_offset=-3 / threads=6 / lookahead_threads=1 / sliced_threads=0 / nr=0 / decimate=0 / interlaced=0 / bluray_compat=0 / constrained_intra=0 / bframes=10 / b_pyramid=2 / b_adapt=2 / b_bias=0 / direct=3 / weightb=1 / open_gop=0 / weightp=2 / keyint=240 / keyint_min=23 / scenecut=40 / intra_refresh=0 / rc_lookahead=40 / rc=2pass / mbtree=0 / bitrate=1022 / ratetol=1.0 / qcomp=0.60 / qpmin=0 / qpmax=69 / qpstep=4 / cplxblur=20.0 / qblur=0.5 / vbv_maxrate=50000 / vbv_bufsize=62500 / nal_hrd=none / filler=0 / ip_ratio=1.40 / pb_ratio=1.30 / aq=1:1.00
Default : Да
Forced : Нет
Аудио
Идентификатор : 2
Формат : AAC
Формат/Информация : Advanced Audio Codec
Профиль формата : LC
Идентификатор кодека : A_AAC
Продолжительность : 1 ч. 34 м.
Битрейт : 76,0 Кбит/сек
Каналы : 2 канала
Расположение каналов : Front: L R
Частота : 48,0 КГц
Частота кадров : 46,875 кадров/сек (1024 SPF)
Метод сжатия : С потерями
Задержка видео : 9 мс.
Размер потока : 51,6 Мбайт (7%)
Default : Да
Forced : Нет
Меню
00:00:00.000 : en:00:00:00.000
00:08:17.997 : en:00:08:17.997
00:16:34.243 : en:00:16:34.243
00:23:43.088 : en:00:23:43.088
00:31:05.781 : en:00:31:05.781
00:39:05.510 : en:00:39:05.510
00:46:17.692 : en:00:46:17.692
00:56:17.457 : en:00:56:17.457
01:03:28.930 : en:01:03:28.930
01:13:03.796 : en:01:13:03.796
01:18:21.030 : en:01:18:21.030
01:26:07.954 : en:01:26:07.954
Скриншоты


Релиз от:
Автор Bot
Категория Зарубежные фильмы
InfoHash C02228310EEA2FB758BFC5DF35D428A0439FF8AC
Файлы (1)
Показать файлы
Трекера
Показать трекера

    Нет комментариев

Войти на сайт

Статистика

  • Всего торрентов: 86180
  • Объёмом: 510.9 Тб
  • Сидов: 2612736
  • Личеров: 162058