Все раздачи Раздачи по тегам Правила Информация Контакты

Как с хорошим вкусом сделать "Вкус Плохой" / Good Taste made Bad Taste (1988) DVDRip-AVC | L1

Как с хорошим вкусом сделать "Вкус Плохой" / Good Taste made Bad Taste (1988) DVDRip-AVC | L1

Информация о фильме
Название: Как с хорошим вкусом сделать "Вкус Плохой"
Оригинальное название: Good Taste made Bad Taste
Год выхода: 1988
Жанр: Документальный, короткометражка
Режиссер: Тони Хайлс
В ролях: Питер Вере-Джонс,Питер Джексон, Крэйг Смит, Дин Лаури, Кен Хаммон, Терри Поттер, Пит О’Херн, Майк Минетт, Коллин Стил
О фильме:
Документальный фильм о том как снимался фильм "Инопланетное рагу". С чего начиналась карьера Питера Джексона, режиссера таких фильмов, как трилогия "Властелин колец", "Кин Конг", "Милые кости" и др.

Страна: Новая Зеландия
Продолжительность: 00:24:33
Перевод: Любительский (одноголосый, закадровый) К.Филонов
Файл
Кодек: H.264
Качество: DVDRip-AVC
Видео: AVC, 720x544 (4:3), 29.970 fps, 1 866 Kbps (0.159 bit/pixel)
Звук: AC-3, 48.0 KHz, 2 ch, 192 Kbps, CBR
Субтитры: Отсутствуют
Релиз: Группа в ВК &
MediaInfo:
Формат : Matroska
Версия формата : Version 2
Размер файла : 362 Мбайт
Продолжительность : 24 м. 33 с.
Общий поток : 2058 Кбит/сек
Дата кодирования : UTC 2017-08-12 12:18:42
Программа кодирования : mkvmerge v5.3.0 ('I could have danced') built on Feb 9 2012 10:38:07
Библиотека кодирования : libebml v1.2.3 + libmatroska v1.3.0
Attachments : poster.jpg
Видео
Идентификатор : 1
Формат : AVC
Формат/Информация : Advanced Video Codec
Профиль формата : High@L4.1
Параметр CABAC формата : Да
Параметр ReFrames формата : 12 кадров
Идентификатор кодека : V_MPEG4/ISO/AVC
Продолжительность : 24 м. 33 с.
Битрейт : 1866 Кбит/сек
Ширина : 720 пикселей
Высота : 544 пикселя
Соотношение сторон : 4:3
Режим частоты кадров : Постоянный
Частота кадров : 29,970 (30000/1001) кадров/сек
Цветовое пространство : YUV
Субдискретизация насыщенности : 4:2:0
Битовая глубина : 8 бит
Тип развёртки : Прогрессивная
Бит/(Пиксели*Кадры) : 0.159
Размер потока : 321 Мбайт (89%)
Библиотека кодирования : x264 core 146 r2538 121396c
Настройки программы : cabac=1 / ref=12 / deblock=1:-3:-3 / analyse=0x3:0x133 / me=umh / subme=10 / psy=1 / psy_rd=1.00:0.00 / mixed_ref=1 / me_range=32 / chroma_me=1 / trellis=2 / 8x8dct=1 / cqm=0 / deadzone=21,11 / fast_pskip=0 / chroma_qp_offset=-2 / threads=12 / lookahead_threads=2 / sliced_threads=0 / nr=0 / decimate=1 / interlaced=0 / bluray_compat=0 / constrained_intra=0 / bframes=11 / b_pyramid=2 / b_adapt=2 / b_bias=0 / direct=3 / weightb=1 / open_gop=0 / weightp=2 / keyint=240 / keyint_min=23 / scenecut=40 / intra_refresh=0 / rc=2pass / mbtree=0 / bitrate=1866 / ratetol=1.0 / qcomp=0.60 / qpmin=0 / qpmax=69 / qpstep=4 / cplxblur=20.0 / qblur=0.5 / ip_ratio=1.40 / pb_ratio=1.30 / aq=3:1.20
Default : Да
Forced : Нет
Аудио
Идентификатор : 2
Формат : AC-3
Формат/Информация : Audio Coding 3
Расширение режима : CM (complete main)
Параметр Endianness формата : Big
Идентификатор кодека : A_AC3
Продолжительность : 24 м. 33 с.
Вид битрейта : Постоянный
Битрейт : 192 Кбит/сек
Каналы : 2 канала
Расположение каналов : Front: L R
Частота : 48,0 КГц
Частота кадров : 31,250 кадров/сек (1536 spf)
Битовая глубина : 16 бит
Метод сжатия : С потерями
Размер потока : 33,7 Мбайт (9%)
Default : Да
Forced : Нет
Скриншоты
Автор Bot
Категория Другое
InfoHash BBFF31308CEF87F2ACD8503B0FBCBC36E2399975
Файлы (1)
Показать файлы
Трекера
Показать трекера

    Нет комментариев

Войти на сайт

Статистика

  • Всего торрентов: 80439
  • Объёмом: 474.9 Тб
  • Сидов: 2161709
  • Личеров: 157602