Подождите, загружаю...

Все раздачи Раздачи по тегам Правила Информация Контакты

Приветствие Джаггера / The Salute of the Jugger (1989) BDRemux 1080i | P, A

Приветствие Джаггера / The Salute of the Jugger (1989) BDRemux 1080i | P, A

Информация о фильме
Название: Приветствие Джаггера
Оригинальное название: The Salute of the Jugger
Год выхода: 1989
Жанр: фантастика, боевик
Режиссер: Дэвид Уэбб Пиплз
В ролях: Рутгер Хауэр, Ричард Нортон, Делрой Линдо, Анна Катарина, Винсент Д`Онофрио, Ганди МакИнтайр, Джастин Монжо, Аарон Мартин, Джоан Чен, Кэйси Хуанг, Нгуен Дин, Джон Биро, Брайан Коули, Джино Терранова, Сесилия Вонг, Джон Самаха, Макс Фэйрчайлд, Хью Кияс-Бёрн, Бейзил Кларк, Дэйл Браун, Даг Милинг
О фильме:
Действие фильма разворачивается в следующем столетии после опустошительной войны. Единственным развлечением выживших после ядерной катастрофы людей стали жестокие соревнования — нечто среднее между рыцарскими турнирами и боями гладиаторов. Команда беспощадного Рутгера Хауэра рвется в высшую лигу, где выигрыш на самом деле является вопросом жизни и смерти.

Страна: США, Австралия
Студия: Handistom Investment, Kamisha Corporation, Kings Road Entertainment
Продолжительность: 01:27:20
Перевод: Профессиональный (многоголосый), авторский (одноголосый)
Субтитры: Английские
Файл
Формат: MKV
Качество: BDRemux 1080p
Видео: MPEG-4 AVC Video / 1920х1080 / 22 Mbps / 25 fps
Звук:
Аудио 01: Русский, 1704 Кбит/сек, 48,0 КГц, 16 бит, 2 канала, DTS-HD MА - Есарев
Аудио 02: Русский, 192 Кбит/сек, 48,0 КГц, 16 бит, 2 канала, AC-3 - Марченко
Аудио 03: Русский, 448 Кбит/сек, 48,0 КГц, 16 бит, 6 каналов, AC-3 - Многоголосый
Аудио 04: English, 1691 Кбит/сек, 48,0 КГц, 16 бит, 2 канала, AC-3 - Оригинал

MediaInfo
Format : Matroska
Format version : Version 4 / Version 2
File size : 15.9 GiB
Duration : 1 h 27 min
Overall bit rate mode : Variable
Overall bit rate : 26.1 Mb/s
Movie name : The Salute Of The Jugger.The blood of heroes.BDRemux
Encoded date : UTC 2017-05-01 18:29:41
Writing application : mkvmerge v8.3.0 ('Over the Horizon') 64bit
Writing library : libebml v1.3.1 + libmatroska v1.4.2
Video
ID : 1
Format : AVC
Format/Info : Advanced Video Codec
Format profile : High@L4.1
Format settings, CABAC : Yes
Format settings, RefFrames : 3 frames
Format settings, GOP : M=3, N=25
Codec ID : V_MPEG4/ISO/AVC
Duration : 1 h 27 min
Bit rate mode : Variable
Bit rate : 22.0 Mb/s
Maximum bit rate : 30.0 Mb/s
Width : 1 920 pixels
Height : 1 080 pixels
Display aspect ratio : 16:9
Frame rate mode : Constant
Frame rate : 25.000 FPS
Standard : PAL
Color space : YUV
Chroma subsampling : 4:2:0
Bit depth : 8 bits
Scan type : MBAFF
Scan type, store method : Interleaved fields
Scan order : Top Field First
Bits/(Pixel*Frame) : 0.425
Stream size : 13.4 GiB (84%)
Title : The Salute Of The Jugger.The blood of heroes.BDRemux
Default : Yes
Forced : No
Color range : Limited
Color primaries : BT.709
Transfer characteristics : BT.709
Matrix coefficients : BT.709
Audio #1
ID : 2
Format : DTS
Format/Info : Digital Theater Systems
Format profile : MA / Core
Mode : 16
Format settings, Endianness : Big
Codec ID : A_DTS
Duration : 1 h 27 min
Bit rate mode : Variable / Constant
Bit rate : 1 704 kb/s / 1 509 kb/s
Channel(s) : 2 channels
Channel positions : Front: L R
Sampling rate : 48.0 kHz
Frame rate : 93.750 FPS (512 SPF)
Bit depth : 16 bits
Compression mode : Lossless / Lossy
Stream size : 1.04 GiB (7%)
Title : AVO Д.Есарев
Language : Russian
Default : Yes
Forced : No
Audio #2
ID : 3
Format : AC-3
Format/Info : Audio Coding 3
Format settings, Endianness : Big
Codec ID : A_AC3
Duration : 1 h 27 min
Bit rate mode : Constant
Bit rate : 192 kb/s
Channel(s) : 2 channels
Channel positions : Front: L R
Sampling rate : 48.0 kHz
Frame rate : 31.250 FPS (1536 SPF)
Bit depth : 16 bits
Compression mode : Lossy
Stream size : 120 MiB (1%)
Title : AVO А.Марченко
Language : Russian
Service kind : Complete Main
Default : No
Forced : No
Audio #3
ID : 4
Format : AC-3
Format/Info : Audio Coding 3
Format settings, Endianness : Big
Codec ID : A_AC3
Duration : 1 h 27 min
Bit rate mode : Constant
Bit rate : 448 kb/s
Channel(s) : 6 channels
Channel positions : Front: L C R, Side: L R, LFE
Sampling rate : 48.0 kHz
Frame rate : 31.250 FPS (1536 SPF)
Bit depth : 16 bits
Compression mode : Lossy
Stream size : 280 MiB (2%)
Title : MVO
Language : Russian
Service kind : Complete Main
Default : No
Forced : No
Audio #4
ID : 5
Format : DTS
Format/Info : Digital Theater Systems
Format profile : MA / Core
Mode : 16
Format settings, Endianness : Big
Codec ID : A_DTS
Duration : 1 h 27 min
Bit rate mode : Variable / Constant
Bit rate : 1 691 kb/s / 1 509 kb/s
Channel(s) : 2 channels
Channel positions : Front: L R
Sampling rate : 48.0 kHz
Frame rate : 93.750 FPS (512 SPF)
Bit depth : 24 bits
Compression mode : Lossless / Lossy
Stream size : 1.03 GiB (6%)
Title : Original
Language : English
Default : No
Forced : No
Text
ID : 6
Format : UTF-8
Codec ID : S_TEXT/UTF8
Codec ID/Info : UTF-8 Plain Text
Duration : 1 h 21 min
Bit rate : 18 b/s
Count of elements : 472
Stream size : 11.1 KiB (0%)
Title : Full
Language : English
Default : No
Forced : No
Автор Bot
Категория Зарубежные фильмы
InfoHash 2825F2F3F389F48DCF0ED43EF717E9DD9175BA65
Файлы (1)
Показать файлы
Трекера
Показать трекера
Похожие раздачи

    Нет комментариев

Войти на сайт

Статистика

  • Всего торрентов: 74266
  • Объёмом: 426.7 Тб
  • Сидов: 2144447
  • Личеров: 185888