Все раздачи Раздачи по тегам Правила Информация Контакты

Место убийцы вакантно (1991) DVDRip-AVC

Место убийцы вакантно (1991) DVDRip-AVC

Информация о фильме
Название: Место убийцы вакантно
Год выхода: 1991
Жанр: Детектив
Режиссёр: Валерий Курыкин
В ролях: Андрей Смоляков, Евгений Матвеев, Алексей Иващенко, Арчил Гомиашвили, Андрей Гусев, Александр Воеводин, Любовь Соколова, Валентин Букин, Леонид Удалов, Игорь Штернберг
О фильме: В провинциальном городе появляется опасный маньяк, охотящийся за женщинами. На его счету уже несколько жертв. Милиция, встревоженная паникой в городе, понимает, что необходимо как-то действовать. И вот схвачены ни в чем не повинные люди, кто-то из них уже ждет расстрела, кто-то на очереди. Молодой следователь, главный герой картины, вступает в схватку с системой.

Страна: СССР
Продолжительность: 01:27:41
Перевод: Не требуется
Файл
Кодек: х264
Качество: DVDRip-AVC
Видео: MPEG-4 AVC, 692x498@738x498, 2250 Кбит/с, 25.000 Кадр/с
Аудио: AC3, 2 ch, 256 Кбит/с
Субтитры: Нет
Релиз от:
Скриншоты

MediaInfo
Общее
Уникальный идентификатор : 212062531730024634566163675358544532629 (0x9F89C20BE773A514987FF19FEBE01495)
Полное имя : Место убийцы вакантно_1991-DVDRip-AVC.KORSAR.mkv
Формат : Matroska
Версия формата : Version 2
Размер файла : 1,54 Гбайт
Продолжительность : 1 ч. 27 м.
Общий поток : 2508 Кбит/сек
Дата кодирования : UTC 2016-08-28 09:47:08
Программа кодирования : mkvmerge v5.8.0 ('No Sleep / Pillow') built on Sep 2 2012 15:37:04
Библиотека кодирования : libebml v1.2.3 + libmatroska v1.3.0
Видео
Идентификатор : 1
Формат : AVC
Формат/Информация : Advanced Video Codec
Профиль формата : High@L4.1
Параметр CABAC формата : Да
Параметр RefFrames формата : 14 кадров
Идентификатор кодека : V_MPEG4/ISO/AVC
Продолжительность : 1 ч. 27 м.
Битрейт : 2250 Кбит/сек
Ширина : 692 пикселя
Высота : 498 пикселей
Соотношение сторон : 3:2
Режим частоты кадров : Постоянный
Частота кадров : 25,000 кадров/сек
Цветовое пространство : YUV
Субдискретизация насыщенности : 4:2:0
Битовая глубина : 8 бит
Тип развёртки : Прогрессивная
Бит/(Пиксели*Кадры) : 0.261
Размер потока : 1,35 Гбайт (88%)
Библиотека кодирования : x264 core 148 r2638 7599210
Настройки программы : cabac=1 / ref=14 / deblock=1:-2:-2 / analyse=0x3:0x133 / me=umh / subme=10 / psy=1 / psy_rd=1.05:0.10 / mixed_ref=1 / me_range=32 / chroma_me=1 / trellis=2 / 8x8dct=1 / cqm=0 / deadzone=21,11 / fast_pskip=0 / chroma_qp_offset=-3 / threads=12 / lookahead_threads=2 / sliced_threads=0 / nr=0 / decimate=0 / interlaced=0 / bluray_compat=0 / constrained_intra=0 / bframes=9 / b_pyramid=2 / b_adapt=2 / b_bias=0 / direct=3 / weightb=1 / open_gop=0 / weightp=2 / keyint=250 / keyint_min=25 / scenecut=40 / intra_refresh=0 / rc_lookahead=40 / rc=2pass / mbtree=0 / bitrate=2250 / ratetol=1.0 / qcomp=0.63 / qpmin=0 / qpmax=39 / qpstep=4 / cplxblur=20.0 / qblur=0.5 / vbv_maxrate=50000 / vbv_bufsize=62500 / nal_hrd=none / filler=0 / ip_ratio=1.40 / pb_ratio=1.30 / aq=2:0.90
Язык : English
Default : Да
Forced : Нет
Цветовой диапазон : Limited
Основные цвета : BT.601 PAL
Характеристики трансфера : BT.470 System B, BT.470 System G
Коэффициенты матрицы : BT.601
Аудио
Идентификатор : 2
Формат : AC-3
Формат/Информация : Audio Coding 3
Параметр Endianness формата : Big
Идентификатор кодека : A_AC3
Продолжительность : 1 ч. 27 м.
Вид битрейта : Постоянный
Битрейт : 256 Кбит/сек
Каналы : 2 канала
Расположение каналов : Front: L R
Частота : 48,0 КГц
Частота кадров : 31,250 кадров/сек (1536 SPF)
Битовая глубина : 16 бит
Метод сжатия : С потерями
Задержка видео : 26 мс.
Размер потока : 161 Мбайт (10%)
Язык : Russian
Default : Да
Forced : Нет
Автор Bot
Категория Наши фильмы
InfoHash B9A239FF5E0DD5E71F87C01D3773C144CAC75E6C
Файлы (1)
Показать файлы
Трекера
Показать трекера

    Нет комментариев

Войти на сайт

Статистика

  • Всего торрентов: 80439
  • Объёмом: 474.9 Тб
  • Сидов: 2161172
  • Личеров: 157515