Все раздачи Раздачи по тегам Правила Информация Контакты

Собибор (2018) WEB-DLRip-AVC | iTunes

Собибор (2018) WEB-DLRip-AVC | iTunes

Информация о фильме
Название: Собибор
Год выпуска: 2018
Жанр: Военный, драма
Режиссер: Константин Хабенский
В ролях: Константин Хабенский, Кристофер Ламберт, Фелисе Янкелль, Дайнюс Казлаускас, Сергей Годин, Роман Агеев, Гела Месхи, Михалина Ольшанска, Мария Кожевникова, Вольфганг Черны
О фильме :
Главный герой Александр Печерский в 1943 году удостоился звания лейтенанта. Но сразу после этого события он попадает в плен просто потому, что он советский еврей. Место куда он попал - это самый страшный концлагерь под названием Собибор. Все знают, что сюда евреев привозят даже не на каторжные работы, а на смерть в газовых камерах. Но воля к жизни Александра не дает ему просто сложа руки ждать конца, поэтому всего за 3 недели он поднимает на восстание всех выживших узников и совершает невозможное!

Страна: Россия
Студия: Патриот Продакшнс
Продолжительность: 01:57:05
Язык: Русский | iTunes
Файл
Формат: MKV
Качество: WEB-DLRip-AVC
Видео: MPEG-4 AVC, 784x328, ~ 813 Кбит/с
Аудио: AAC-HE, 2 ch, ~ 76 Кбит/с
Субтитры: Нет
MI
Общее
Уникальный идентификатор : 322566592970321153727942374375413823704 (0xF2AC10E864DD6715F51C14A0BF94B8D8)
Полное имя : D:MOVIESSobibor.2018.ExKinoRay.mkv
Формат : Matroska
Версия формата : Version 2
Размер файла : 744 Мбайт
Продолжительность : 1 ч. 57 м.
Общий поток : 888 Кбит/сек
Дата кодирования : UTC 2018-06-03 23:51:05
Программа кодирования : mkvmerge v23.0.0 ('The Bride Said No') 64-bit
Библиотека кодирования : libebml v1.3.6 + libmatroska v1.4.9
Видео
Идентификатор : 1
Формат : AVC
Формат/Информация : Advanced Video Codec
Профиль формата : High@L4.1
Параметр CABAC формата : Да
Параметр RefFrames формата : 10 кадров
Идентификатор кодека : V_MPEG4/ISO/AVC
Продолжительность : 1 ч. 57 м.
Битрейт : 813 Кбит/сек
Ширина : 784 пикселя
Высота : 328 пикселей
Соотношение сторон : 2,40:1
Режим частоты кадров : Постоянный
Частота кадров : 24,000 кадра/сек
Цветовое пространство : YUV
Субдискретизация насыщенности : 4:2:0
Битовая глубина : 8 бит
Тип развёртки : Прогрессивная
Бит/(Пиксели*Кадры) : 0.132
Размер потока : 679 Мбайт (91%)
Библиотека кодирования : x264 core 152 r2851kMod ba24899
Настройки программы : cabac=1 / ref=10 / deblock=1:-3:-3 / analyse=0x3:0x133 / me=umh / subme=11 / psy=1 / fade_compensate=0.00 / psy_rd=1.00:0.14 / mixed_ref=1 / me_range=32 / chroma_me=1 / trellis=2 / 8x8dct=1 / cqm=0 / deadzone=21,11 / fast_pskip=0 / chroma_qp_offset=-3 / threads=6 / lookahead_threads=1 / sliced_threads=0 / nr=0 / decimate=0 / interlaced=0 / bluray_compat=0 / constrained_intra=0 / bframes=10 / b_pyramid=2 / b_adapt=2 / b_bias=0 / direct=3 / weightb=1 / open_gop=0 / weightp=2 / keyint=240 / keyint_min=23 / scenecut=40 / intra_refresh=0 / rc_lookahead=40 / rc=2pass / mbtree=1 / bitrate=813 / ratetol=1.0 / qcomp=0.60 / qpmin=0 / qpmax=69 / qpstep=4 / cplxblur=20.0 / qblur=0.5 / vbv_maxrate=50000 / vbv_bufsize=62500 / nal_hrd=none / filler=0 / ip_ratio=1.40 / aq=3:1.00
Default : Да
Forced : Нет
Аудио
Идентификатор : 2
Формат : AAC
Формат/Информация : Advanced Audio Codec
Профиль формата : HE-AAC / LC
Идентификатор кодека : A_AAC
Продолжительность : 1 ч. 57 м.
Битрейт : 76,0 Кбит/сек
Каналы : 2 канала
Расположение каналов : Front: L R
Частота : 48,0 КГц / 24,0 КГц
Частота кадров : 23,438 кадра/сек (1024 SPF)
Метод сжатия : С потерями
Задержка видео : 31 мс.
Размер потока : 63,6 Мбайт (9%)
Язык : Russian
Default : Да
Forced : Нет
Скриншоты


Релиз от:
Автор Bot
Категория Наши фильмы
InfoHash 25CBA32A7253AD13264CBA232AE9D6EDFE1C8B7E
Файлы (1)
Показать файлы
Трекера
Показать трекера
Похожие раздачи
Название Добавлен Размер Сид Лич
Собибор (2018) WEB-DLRip | iTunes 03/06/2018 1.4 Гб 2,472 46
Собибор (2018) WEB-DLRip | iTunes 03/06/2018 745.3 Мб 334 5
Собибор (2018) WEB-DLRip-AVC Rustorka | iTunes 02/06/2018 2.6 Гб 1,249 4
Собибор (2018) WEB-DLRip-AVC | iTunes 01/06/2018 1.5 Гб 411 0
Собибор (2018) WEB-DLRip | КПК | iTunes 01/06/2018 444.8 Мб 55 1
Собибор (2018) WEB-DLRip | iTunes 01/06/2018 747.0 Мб 123 0
Собибор (2018) WEB-DLRip-AVC | iTunes 01/06/2018 1.6 Гб 237 1
Собибор (2018) WEB-DL 1080p | iTunes 31/05/2018 4.0 Гб 4,964 56
Собибор (2018) WEB-DLRip | iTunes 31/05/2018 1.5 Гб 7,641 124

    Нет комментариев

Войти на сайт

Статистика

  • Всего торрентов: 92712
  • Объёмом: 554.4 Тб
  • Сидов: 2942928
  • Личеров: 191592