Все раздачи Раздачи по тегам Правила Информация Контакты

Врата Штейна: Дежа вю / Gekijouban Steins;Gate: Fuka Ryouiki no Deja vu (2013) BDRip 720p | Persona99

Врата Штейна: Дежа вю / Gekijouban Steins;Gate: Fuka Ryouiki no Deja vu (2013) BDRip 720p | Persona99

Информация о фильме
Название: Врата Штейна: Дежа вю
Оригинальное название: Steins;Gate: Fuka Ryouiki no Déjà vu
Страна: Япония
Год выпуска: 2013
Жанр: триллер, фантастика, драма
Тип: полнометражный фильм
Продолжительность: 01:30:02
Режиссер: Вакабаяси Кандзи
Студия: White Fox
Описание:
Год назад Окабе Ринтаро удалось стабилизировать мировую линию, в которой ни один из его друзей не погибает. Однако многочисленные путешествия во времени, которые он тогда совершил, привели к возникновению множества побочных эффектов. Накопившись, они вызвали исчезновение Ринтаро из этого мира. И только его девушка Макисэ помнит о нём. Будучи талантливым физиком, она начинает искать способы вернуть любимого назад.
© Hollow, World Art
Доп. информация:

Релиз GSGroup
Перевод: Любительский одноголосый (Persona99)
Субтитры: русские (встроенные) перевод: Nesitach
Редактор/Тайм-код/Оформление: Stan WarHammer
Качество: BDRip 720p
Формат видео: MKV
Видео: AVC, 1280x720, 23.976 fps, ~1933 Kbps, 10 bits
Аудио 1: AAC , 192 kb/s, 48.0 KHz, 2 ch - любительский одноголосый
Аудио 2: AAC, 192 Kbps, 48.0 KHz, 2 ch -оригинал (Японский)
Семпл
Подробные тех. данные
General
Unique ID : 206317577111725469401705054785586281858 (0x9B3751EA4B35989AB928551F65D33D82)
Complete name :Steins;GateSteins;Gate Fuka Ryouiki no Deja vu [Persona99] [BD720p].rus.jpn.mkv
Format : Matroska
Format version : Version 2
File size : 1.54 GiB
Duration : 1h 30mn
Overall bit rate : 2 446 Kbps
Encoded date : UTC 2018-05-29 22:42:21
Writing application : mkvmerge v4.1.1 ('Bouncin' Back') built on Jul 3 2010 22:54:08
Writing library : libebml v1.0.0 + libmatroska v1.0.0
Video
ID : 1
Format : AVC
Format/Info : Advanced Video Codec
Format profile : High 10@L5
Format settings, CABAC : Yes
Format settings, ReFrames : 16 frames
Codec ID : V_MPEG4/ISO/AVC
Duration : 1h 30mn
Bit rate : 1 886 Kbps
Width : 1 280 pixels
Height : 720 pixels
Display aspect ratio : 16:9
Frame rate mode : Constant
Frame rate : 23.976 fps
Color space : YUV
Chroma subsampling : 4:2:0
Bit depth : 10 bits
Scan type : Progressive
Bits/(Pixel*Frame) : 0.085
Stream size : 1.19 GiB (77%)
Writing library : x264 core 138 r2358 9e941d1
Encoding settings : cabac=1 / ref=16 / deblock=1:0:0 / analyse=0x3:0x133 / me=umh / subme=10 / psy=1 / psy_rd=1.00:0.00 / mixed_ref=1 / me_range=24 / chroma_me=1 / trellis=2 / 8x8dct=1 / cqm=0 / deadzone=21,11 / fast_pskip=1 / chroma_qp_offset=-2 / threads=12 / lookahead_threads=2 / sliced_threads=0 / nr=0 / decimate=1 / interlaced=0 / bluray_compat=0 / constrained_intra=0 / bframes=8 / b_pyramid=2 / b_adapt=2 / b_bias=0 / direct=3 / weightb=1 / open_gop=0 / weightp=2 / keyint=240 / keyint_min=23 / scenecut=40 / intra_refresh=0 / rc_lookahead=60 / rc=crf / mbtree=1 / crf=16.0 / qcomp=0.60 / qpmin=0 / qpmax=81 / qpstep=4 / ip_ratio=1.40 / aq=1:1.00
Language : English
Default : Yes
Forced : No
Audio #1
ID : 2
Format : AC-3
Format/Info : Audio Coding 3
Mode extension : CM (complete main)
Format settings, Endianness : Big
Muxing mode : Header stripping
Codec ID : A_AC3
Duration : 1h 30mn
Bit rate mode : Constant
Bit rate : 192 Kbps
Channel(s) : 2 channels
Channel positions : Front: L R
Sampling rate : 48.0 KHz
Compression mode : Lossy
Stream size : 124 MiB (8%)
Title : Persona99
Language : Russian
Default : Yes
Forced : No
Audio #2
ID : 3
Format : AC-3
Format/Info : Audio Coding 3
Mode extension : CM (complete main)
Format settings, Endianness : Big
Muxing mode : Header stripping
Codec ID : A_AC3
Duration : 1h 30mn
Bit rate mode : Constant
Bit rate : 320 Kbps
Channel(s) : 6 channels
Channel positions : Front: L C R, Side: L R, LFE
Sampling rate : 48.0 KHz
Compression mode : Lossy
Stream size : 206 MiB (13%)
Language : Japanese
Default : No
Forced : No
Text
ID : 4
Format : ASS
Codec ID : S_TEXT/ASS
Codec ID/Info : Advanced Sub Station Alpha
Compression mode : Lossless
Language : Russian
Default : No
Forced : No
Скриншоты


Автор Bot
Категория Аниме
InfoHash C17BE7ACFA094027606B3618E43664062F703E6A
Файлы (1)
Показать файлы
Трекера
Показать трекера
Похожие раздачи

    Нет комментариев

Войти на сайт

Статистика

  • Всего торрентов: 80795
  • Объёмом: 477.0 Тб
  • Сидов: 2234627
  • Личеров: 171804