Все раздачи Раздачи по тегам Правила Информация Контакты

Северная повесть (1960) DVDRip-AVC

Северная повесть (1960) DVDRip-AVC

Страна: СССР
Производство: Мосфильм
Жанр: драма, мелодрама, биография, история
Год выпуска: 1960
Продолжительность: 01:12:51
Перевод: Не требуется
Cубтитры: нет
Оригинальная аудиодорожка: русский
Режиссер: Евгений Андриканис
В ролях:
Олег Стриженов, Иева Мурниеце, Валентин Зубков, Геннадий Юдин, Николай Свободин, Виктор Кулаков, Георгий Черноволенко, Александр Кутепов, Фёдор Никитин, Андрей Файт, Иван Кузнецов, Николай Хрящиков...
Об актёрах подробней
Описание:
По одноименному произведению К. Г. Паустовского.
Однажды прекрасной белой ночью молодой художник Алексей Тихонов (Валентин Зубков) встретил в Петергофе девушку. И потом не мог забыть эту мимолётную встречу. А позже случайно в кабинете академика Щедрина (Геннадий Юдин) он увидел портрет женщины, удивительно похожей на его незнакомку. Академик рассказал ему историю этой женщины - историю трагическую и красивую...


Источник: DVD5 R5
Качество видео: DVDRip-AVC
Формат видео: MKV
Видео: 688->716х538 (4:3), 25 fps, H264 ~ 1235 kbps avg, 0.133 bit/pixel
Аудио: 48 kHz, Dolby Digital AC3 2.0, 192 kbps
Раздача от:
MediaInfo

Общее
Полное имя : Severnaya.povest.1960.DVDRip-AVC_[New-team]_by_AVP_Studio.mkv
Формат : Matroska
Версия формата : Version 2
Размер файла : 745 Мбайт
Продолжительность : 1 ч. 12 м.
Общий поток : 1429 Кбит/сек
Дата кодирования : UTC 2018-05-30 11:40:00
Программа кодирования : mkvmerge v6.1.0 ('Old Devil') built on Mar 4 2013 09:10:42
Библиотека кодирования : libebml v1.3.0 + libmatroska v1.4.0
Видео
Идентификатор : 1
Формат : AVC
Формат/Информация : Advanced Video Codec
Профиль формата : High@L4.1
Настройки формата : CABAC / 10 Ref Frames
Параметр CABAC формата : Да
Параметр RefFrames формата : 10 кадров
Идентификатор кодека : V_MPEG4/ISO/AVC
Продолжительность : 1 ч. 12 м.
Битрейт : 1235 Кбит/сек
Ширина : 688 пикселей
Высота : 538 пикселей
Соотношение сторон : 4:3
Режим частоты кадров : Постоянный
Частота кадров : 25,000 кадров/сек
Цветовое пространство : YUV
Субдискретизация насыщенности : 4:2:0
Битовая глубина : 8 бит
Тип развёртки : Прогрессивная
Бит/(Пиксели*Кадры) : 0.133
Размер потока : 630 Мбайт (85%)
Библиотека кодирования : x264 core 130 r2273 b3065e6
Настройки программы : cabac=1 / ref=10 / deblock=1:-2:-1 / analyse=0x3:0x113 / me=umh / subme=10 / psy=1 / psy_rd=1.00:0.00 / mixed_ref=1 / me_range=32 / chroma_me=1 / trellis=2 / 8x8dct=1 / cqm=0 / deadzone=21,11 / fast_pskip=1 / chroma_qp_offset=-2 / threads=6 / lookahead_threads=1 / sliced_threads=0 / nr=0 / decimate=0 / interlaced=0 / bluray_compat=0 / constrained_intra=0 / bframes=8 / b_pyramid=2 / b_adapt=2 / b_bias=0 / direct=3 / weightb=1 / open_gop=0 / weightp=2 / keyint=250 / keyint_min=25 / scenecut=40 / intra_refresh=0 / rc=2pass / mbtree=0 / bitrate=1235 / ratetol=1.0 / qcomp=0.60 / qpmin=0 / qpmax=69 / qpstep=4 / cplxblur=20.0 / qblur=0.5 / ip_ratio=1.40 / pb_ratio=1.30 / aq=1:1.00
Default : Да
Forced : Нет
Аудио
Идентификатор : 2
Формат : AC-3
Формат/Информация : Audio Coding 3
Идентификатор кодека : A_AC3
Продолжительность : 1 ч. 12 м.
Вид битрейта : Постоянный
Битрейт : 192 Кбит/сек
Каналы : 2 канала
Расположение каналов : Front: L R
Частота : 48,0 КГц
Частота кадров : 31,250 кадров/сек (1536 SPF)
Битовая глубина : 16 бит
Метод сжатия : С потерями
Размер потока : 100 Мбайт (13%)
Default : Да
Forced : Нет

Скриншоты


Автор Bot
Категория Наши фильмы
InfoHash E9867B4AD4442989BD8B08227A0E9E6AA90A0D42
Файлы (1)
Показать файлы
Трекера
Показать трекера
Похожие раздачи
Название Добавлен Размер Сид Лич
Северная повесть (1960) DVDRip 06/06/2018 744.8 Мб 7 0

    Нет комментариев

Войти на сайт

Статистика

  • Всего торрентов: 80594
  • Объёмом: 475.7 Тб
  • Сидов: 2126605
  • Личеров: 166466