Все раздачи Раздачи по тегам Правила Информация Контакты

Северная повесть (1960) DVDRip

Северная повесть (1960) DVDRip

Страна: СССР
Производство: Мосфильм
Жанр: драма, мелодрама, биография, история
Год выпуска: 1960
Продолжительность: 01:12:51
Перевод: Не требуется
Cубтитры: нет
Оригинальная аудиодорожка: русский
Режиссер: Евгений Андриканис
В ролях:
Олег Стриженов, Иева Мурниеце, Валентин Зубков, Геннадий Юдин, Николай Свободин, Виктор Кулаков, Георгий Черноволенко, Александр Кутепов, Фёдор Никитин, Андрей Файт, Иван Кузнецов, Николай Хрящиков...
Об актёрах подробней
Описание:
По одноименному произведению К. Г. Паустовского.
Однажды прекрасной белой ночью молодой художник Алексей Тихонов (Валентин Зубков) встретил в Петергофе девушку. И потом не мог забыть эту мимолётную встречу. А позже случайно в кабинете академика Щедрина (Геннадий Юдин) он увидел портрет женщины, удивительно похожей на его незнакомку. Академик рассказал ему историю этой женщины - историю трагическую и красивую...


Источник: DVD5 R5
Качество видео: DVDRip
Формат видео: AVI
Видео: 688х512 (4:3), 25 fps, XviD ~ 1227 kbps avg, 0.139 bit/pixel
Аудио: 48 kHz, Dolby Digital AC3 2.0, 192 kbps
Раздача от:
MediaInfo

Общее
Полное имя : Severnaya.povest.1960.DVDRip_[New-team]_by_AVP_Studio.avi
Формат : AVI
Формат/Информация : Audio Video Interleave
Размер файла : 745 Мбайт
Продолжительность : 1 ч. 12 м.
Общий поток : 1429 Кбит/сек
Программа кодирования : VirtualDubMod 1.5.10.3 | www.virtualdub-fr.org || (build 2550/release)
Библиотека кодирования : VirtualDubMod build 2550/release
Видео
Идентификатор : 0
Формат : MPEG-4 Visual
Профиль формата : Advanced Simple@L5
Настройки формата : BVOP1 / Custom Matrix
Параметр BVOP формата : 1
Параметр QPel формата : Нет
Параметр GMC формата : Без точки перехода
Параметр матрицы формата : Выборочная
Идентификатор кодека : XVID
Идентификатор кодека/Подсказка : XviD
Продолжительность : 1 ч. 12 м.
Битрейт : 1227 Кбит/сек
Ширина : 688 пикселей
Высота : 512 пикселей
Соотношение сторон : 4:3
Частота кадров : 25,000 кадров/сек
Цветовое пространство : YUV
Субдискретизация насыщенности : 4:2:0
Битовая глубина : 8 бит
Тип развёртки : Прогрессивная
Метод сжатия : С потерями
Бит/(Пиксели*Кадры) : 0.139
Размер потока : 640 Мбайт (86%)
Библиотека кодирования : XviD 73
Аудио
Идентификатор : 1
Формат : AC-3
Формат/Информация : Audio Coding 3
Идентификатор кодека : 2000
Продолжительность : 1 ч. 12 м.
Вид битрейта : Постоянный
Битрейт : 192 Кбит/сек
Каналы : 2 канала
Расположение каналов : Front: L R
Частота : 48,0 КГц
Частота кадров : 31,250 кадров/сек (1536 SPF)
Битовая глубина : 16 бит
Метод сжатия : С потерями
Размер потока : 100 Мбайт (13%)
Выравнивание : Разделение по промежуткам
Продолжительность промежутка : 40 мс. (1,00 видеокадр)
Время предзагрузки промежутка : 500 мс

Скриншоты


Автор Bot
Категория Наши фильмы
InfoHash 79ADE08253B84712BB388E81006D524CEF124FE7
Файлы (1)
Показать файлы
Трекера
Показать трекера
Похожие раздачи
Название Добавлен Размер Сид Лич
Северная повесть (1960) DVDRip-AVC 06/06/2018 744.6 Мб 5 0

    Нет комментариев

Войти на сайт

Статистика

  • Всего торрентов: 80775
  • Объёмом: 476.9 Тб
  • Сидов: 2228133
  • Личеров: 167541