Все раздачи Раздачи по тегам Правила Информация Контакты

Юность наших отцов (1958) SATRip

Юность наших отцов (1958) SATRip
Страна: СССР
Производство: Киностудия им. Горького
Жанр: драма, история
Год выпуска: 1958
Продолжительность: 01:17:15
Перевод: Не требуется
Cубтитры: нет
Оригинальная аудиодорожка: русский
Режиссер: Михаил Калик, Борис Рыцарев
В ролях:
Александр Кутепов, Георгий Юматов, Инна Выходцева, Виталий Четвериков, Виктор Терехов, Геннадий Юхтин, Николай Крючков, Николай Смирнов, Иван Рыжов, Алексей Кельберер, Константин Ерофеев, Виктор Адеев, Николай Граббе, Анатолий Никитин...
Об актёрах подробней
Описание:
По мотивам романа А. Фадеева "Разгром".
Гражданская война. Движется на отдых партизанский отряд под командованием Левинсона. Разных людей связала война. Мрачноватый Морозка; вначале идеалист, а потом трус и дезертир Павел Мечик; Метелица, самый светлый персонаж фильма; разбитная медсестра Варя... Все они до поры до времени связаны общей целью - победить белоказаков, но каждый из них лелеет в душе собственную боль и надежду на счастье. "Создание новой, рождающейся в революционном бытии личности" - так определял основную идею романа сам Фадеев. Но оказывается, что "новая личность" видит свою жизнь и судьбу так же, как и прежняя. Вот только судьба эта оказывается более жестокой.

Источник: DVB
Качество видео: SATRip
Формат видео: AVI
Видео: 704x528 (4:3), 25 fps, XviD ~ 1818 kbps avg, 0.196 bit/pixel
Аудио: 48 kHz, Dolby Digital AC3 2.0, 192 kbps
MediaInfo

Общее
Полное имя : Yunost.nashih.otcov.1958.SATRip_[New-team]_by_AVP_Studio.avi
Формат : AVI
Формат/Информация : Audio Video Interleave
Размер файла : 1,09 Гбайт
Продолжительность : 1 ч. 17 м.
Общий поток : 2019 Кбит/сек
Программа кодирования : VirtualDubMod 1.5.10.3 | www.virtualdub-fr.org || (build 2550/release)
Библиотека кодирования : VirtualDubMod build 2550/release
Видео
Идентификатор : 0
Формат : MPEG-4 Visual
Профиль формата : Advanced Simple@L5
Параметр BVOP формата : 1
Параметр QPel формата : Нет
Параметр GMC формата : Без точки перехода
Параметр матрицы формата : Выборочная
Идентификатор кодека : XVID
Идентификатор кодека/Подсказка : XviD
Продолжительность : 1 ч. 17 м.
Битрейт : 1818 Кбит/сек
Ширина : 704 пикселя
Высота : 528 пикселей
Соотношение сторон : 4:3
Частота кадров : 25,000 кадров/сек
Цветовое пространство : YUV
Субдискретизация насыщенности : 4:2:0
Битовая глубина : 8 бит
Тип развёртки : Прогрессивная
Метод сжатия : С потерями
Бит/(Пиксели*Кадры) : 0.196
Размер потока : 1004 Мбайт (90%)
Библиотека кодирования : XviD 73
Аудио
Идентификатор : 1
Формат : AC-3
Формат/Информация : Audio Coding 3
Параметр Endianness формата : Big
Идентификатор кодека : 2000
Продолжительность : 1 ч. 17 м.
Вид битрейта : Постоянный
Битрейт : 192 Кбит/сек
Каналы : 2 канала
Расположение каналов : Front: L R
Частота : 48,0 КГц
Частота кадров : 31,250 кадров/сек (1536 SPF)
Битовая глубина : 16 бит
Метод сжатия : С потерями
Размер потока : 106 Мбайт (10%)
Выравнивание : Разделение по промежуткам
Продолжительность промежутка : 40 мс. (1,00 видеокадр)
Время предзагрузки промежутка : 500 мс

Скриншоты


Автор Bot
Категория Наши фильмы
InfoHash FAE88A55AC2A0AA217CA97E47F03A98A1D8DCAAB
Файлы (1)
Показать файлы
Трекера
Показать трекера

    Нет комментариев

Войти на сайт

Статистика

  • Всего торрентов: 80775
  • Объёмом: 476.9 Тб
  • Сидов: 2228036
  • Личеров: 167508