Все раздачи Раздачи по тегам Правила Информация Контакты

Чудотворная (1960) SATRip-AVC

Чудотворная (1960) SATRip-AVC

Страна: СССР
Производство: Мосфильм
Жанр: драма
Год выпуска: 1960
Продолжительность: 01:15:28
Перевод: Не требуется
Cубтитры: нет
Оригинальная аудиодорожка: русский
Режиссер: Владимир Скуйбин
В ролях:
Владимир Васильев (Х), Нина Меньшикова, Антонина Павлычева, Клавдия Половикова, Владимир Покровский, Пётр Савин, Иван Рыжов, Валерий Коротков, Саша Крылов (III), Станислав Чекан, Елена Максимова, Вера Бурлакова...
Об актёрах подробней
Описание:
Ученик Гумнищенской сельской школы Родька Гуляев выкапывает на берегу реки древнюю потемневшую икону, а его бабка Авдотья распускает слух, что эта икона - чудотворная, а ее внук Родька - святой. Бабка и мать стали силой "обращать его в христианскую веру". Мальчика заставляли носить крест, молиться. Родька протестовал, стыдился товарищей. Доведенный до отчаяния, он решил уничтожить икону, но был застигнут "на месте преступления" бабкой. Беспощадно избитый, не видя выхода, он бросился в реку, но учительнице Прасковье Петровне удалось его спасти.

Исходник: DVB
Качество видео: SATRip-AVC
Формат видео: MKV
Видео: 688->754x566 (4:3), 25,000 кадров/сек, H264 ~ 1872 kbps avg, 0.192 bit/pixel
Аудио: 48 kHz, Dolby Digital AC3 2.0, 192 kbps
Раздача от:
MediaInfo

Общее
Полное имя : Chudotvornaya.1960.SATRip-AVC_[New-team]_by_AVP_Studio.mkv
Формат : Matroska
Версия формата : Version 2
Размер файла : 1,09 Гбайт
Продолжительность : 1 ч. 15 м.
Общий поток : 2066 Кбит/сек
Дата кодирования : UTC 2018-06-06 13:00:42
Программа кодирования : mkvmerge v6.1.0 ('Old Devil') built on Mar 4 2013 09:10:42
Библиотека кодирования : libebml v1.3.0 + libmatroska v1.4.0
Видео
Идентификатор : 1
Формат : AVC
Формат/Информация : Advanced Video Codec
Профиль формата : High@L4.1
Настройки формата : CABAC / 10 Ref Frames
Параметр CABAC формата : Да
Параметр RefFrames формата : 10 кадров
Идентификатор кодека : V_MPEG4/ISO/AVC
Продолжительность : 1 ч. 15 м.
Битрейт : 1872 Кбит/сек
Ширина : 688 пикселей
Высота : 566 пикселей
Соотношение сторон : 4:3
Режим частоты кадров : Постоянный
Частота кадров : 25,000 кадров/сек
Цветовое пространство : YUV
Субдискретизация насыщенности : 4:2:0
Битовая глубина : 8 бит
Тип развёртки : Прогрессивная
Бит/(Пиксели*Кадры) : 0.192
Размер потока : 989 Мбайт (89%)
Библиотека кодирования : x264 core 130 r2273 b3065e6
Настройки программы : cabac=1 / ref=10 / deblock=1:-2:-1 / analyse=0x3:0x113 / me=umh / subme=10 / psy=1 / psy_rd=1.00:0.00 / mixed_ref=1 / me_range=32 / chroma_me=1 / trellis=2 / 8x8dct=1 / cqm=0 / deadzone=21,11 / fast_pskip=1 / chroma_qp_offset=-2 / threads=6 / lookahead_threads=1 / sliced_threads=0 / nr=0 / decimate=0 / interlaced=0 / bluray_compat=0 / constrained_intra=0 / bframes=8 / b_pyramid=2 / b_adapt=2 / b_bias=0 / direct=3 / weightb=1 / open_gop=0 / weightp=2 / keyint=250 / keyint_min=25 / scenecut=40 / intra_refresh=0 / rc=2pass / mbtree=0 / bitrate=1872 / ratetol=1.0 / qcomp=0.60 / qpmin=0 / qpmax=69 / qpstep=4 / cplxblur=20.0 / qblur=0.5 / ip_ratio=1.40 / pb_ratio=1.30 / aq=1:1.00
Default : Да
Forced : Нет
Аудио
Идентификатор : 2
Формат : AC-3
Формат/Информация : Audio Coding 3
Идентификатор кодека : A_AC3
Продолжительность : 1 ч. 15 м.
Вид битрейта : Постоянный
Битрейт : 192 Кбит/сек
Каналы : 2 канала
Расположение каналов : Front: L R
Частота : 48,0 КГц
Частота кадров : 31,250 кадров/сек (1536 SPF)
Битовая глубина : 16 бит
Метод сжатия : С потерями
Размер потока : 104 Мбайт (9%)
Default : Да
Forced : Нет

Скриншоты


Автор Bot
Категория Наши фильмы
InfoHash 644ABC43A6B0627B669F922409686EA889DD80D1
Файлы (1)
Показать файлы
Трекера
Показать трекера
Похожие раздачи
Название Добавлен Размер Сид Лич
Чудотворная (1960) SATRip 07/06/2018 1.1 Гб 10 0

    Нет комментариев

Войти на сайт

Статистика

  • Всего торрентов: 92311
  • Объёмом: 552.0 Тб
  • Сидов: 2972405
  • Личеров: 186804