Все раздачи Раздачи по тегам Правила Информация Контакты

Чудотворная (1960) SATRip

Чудотворная (1960) SATRip

Страна: СССР
Производство: Мосфильм
Жанр: драма
Год выпуска: 1960
Продолжительность: 01:15:28
Перевод: Не требуется
Cубтитры: нет
Оригинальная аудиодорожка: русский
Режиссер: Владимир Скуйбин
В ролях:
Владимир Васильев (Х), Нина Меньшикова, Антонина Павлычева, Клавдия Половикова, Владимир Покровский, Пётр Савин, Иван Рыжов, Валерий Коротков, Саша Крылов (III), Станислав Чекан, Елена Максимова, Вера Бурлакова...
Об актёрах подробней
Описание:
Ученик Гумнищенской сельской школы Родька Гуляев выкапывает на берегу реки древнюю потемневшую икону, а его бабка Авдотья распускает слух, что эта икона - чудотворная, а ее внук Родька - святой. Бабка и мать стали силой "обращать его в христианскую веру". Мальчика заставляли носить крест, молиться. Родька протестовал, стыдился товарищей. Доведенный до отчаяния, он решил уничтожить икону, но был застигнут "на месте преступления" бабкой. Беспощадно избитый, не видя выхода, он бросился в реку, но учительнице Прасковье Петровне удалось его спасти.

Исходник: DVB
Качество видео: SATRip
Формат видео: AVI
Видео: 688x512 (4:3), 25,000 кадров/сек, XviD ~ 1865 kbps avg, 0.212 bit/pixel
Аудио: 48 kHz, Dolby Digital AC3 2.0, 192 kbps
Раздача от:
MediaInfo

Общее
Полное имя : Chudotvornaya.1960.SATRip_[New-team]_by_AVP_Studio.avi
Формат : AVI
Формат/Информация : Audio Video Interleave
Размер файла : 1,09 Гбайт
Продолжительность : 1 ч. 15 м.
Общий поток : 2066 Кбит/сек
Программа кодирования : VirtualDubMod 1.5.10.3 | www.virtualdub-fr.org || (build 2550/release)
Библиотека кодирования : VirtualDubMod build 2550/release
Видео
Идентификатор : 0
Формат : MPEG-4 Visual
Профиль формата : Advanced Simple@L5
Настройки формата : BVOP1 / Custom Matrix
Параметр BVOP формата : 1
Параметр QPel формата : Нет
Параметр GMC формата : Без точки перехода
Параметр матрицы формата : Выборочная
Идентификатор кодека : XVID
Идентификатор кодека/Подсказка : XviD
Продолжительность : 1 ч. 15 м.
Битрейт : 1865 Кбит/сек
Ширина : 688 пикселей
Высота : 512 пикселей
Соотношение сторон : 4:3
Частота кадров : 25,000 кадров/сек
Цветовое пространство : YUV
Субдискретизация насыщенности : 4:2:0
Битовая глубина : 8 бит
Тип развёртки : Прогрессивная
Метод сжатия : С потерями
Бит/(Пиксели*Кадры) : 0.212
Размер потока : 1006 Мбайт (90%)
Библиотека кодирования : XviD 73
Аудио
Идентификатор : 1
Формат : AC-3
Формат/Информация : Audio Coding 3
Идентификатор кодека : 2000
Продолжительность : 1 ч. 15 м.
Вид битрейта : Постоянный
Битрейт : 192 Кбит/сек
Каналы : 2 канала
Расположение каналов : Front: L R
Частота : 48,0 КГц
Частота кадров : 31,250 кадров/сек (1536 SPF)
Битовая глубина : 16 бит
Метод сжатия : С потерями
Размер потока : 104 Мбайт (9%)
Выравнивание : Разделение по промежуткам
Продолжительность промежутка : 40 мс. (1,00 видеокадр)
Время предзагрузки промежутка : 500 мс

Скриншоты


Автор Bot
Категория Наши фильмы
InfoHash D5FBF2BE866A675985625566A17F92B58D46E59E
Файлы (1)
Показать файлы
Трекера
Показать трекера
Похожие раздачи
Название Добавлен Размер Сид Лич
Чудотворная (1960) SATRip-AVC 07/06/2018 1.1 Гб 8 0

    Нет комментариев

Войти на сайт

Статистика

  • Всего торрентов: 92712
  • Объёмом: 554.4 Тб
  • Сидов: 2942928
  • Личеров: 191592