Все раздачи Раздачи по тегам Правила Информация Контакты

Гамельнский скрипач / Violinist of Hamelin (1996) TVRip | Persona99

Гамельнский скрипач / Violinist of Hamelin (1996) TVRip | Persona99

Информация о фильме
Название: Гамельнский скрипач
Оригинальное название: Hamelin no Violin Hiki
Год выхода: 1996
Жанр: приключения, фэнтези
Режиссер: Нисимура Дзюндзи
Описание:
Однажды в Стаккато появляются демоны и начинают сеять ужас среди жителей. Всему виной ослабевший барьер, сдерживавший демонов от проникновения в мир людей. Королева поддерживавшая его в течении многих лет ослаба. Нападение на мир людей организовал Hell King Bass желающий освободить верховного предводителя Kestra, часть которого спрятана в мире людей.
Доп. информация:

Релиз GSGroup
Страна: Япония
Студия: DEEN
Продолжительность: ТВ (25 эп.) 00:24:00
Перевод: Любительский одноголосый (Persona99)
Субтитры: русские, перевод Александр aka Virus
Качество: TVRip
Формат видео: AVI
Видео: DivX 640x480 1806 kb/ps, 8 bits.
Аудио 1: MP3 44 КГц; 128 Кбит/сек , 2.0 Язык Русский (в составе контейнера) ; Озвучка: Любительский одноголосый (Persona99)
Аудио 2: MP3 44 КГц; 128 Кбит/сек , 2.0 оригинал (Японский)
Семпл
Подробные тех. данные

General
Complete name : E:Anime_EViolinist of Hamelin TV1_Violinist of Hamelin[Persona99].rus.jpn.avi
Format : AVI
Format/Info : Audio Video Interleave
File size : 356 MiB
Duration : 23mn 58s
Overall bit rate : 2 079 Kbps
Writing application : VirtualDubMod 1.5.10.2 (build 2540/release)
Writing library : VirtualDubMod build 2540/release
Video
ID : 0
Format : MPEG-4 Visual
Format settings, BVOP : 1
Format settings, QPel : No
Format settings, GMC : No warppoints
Format settings, Matrix : Default (H.263)
Muxing mode : Packed bitstream
Codec ID : DX50
Codec ID/Hint : DivX 5
Duration : 23mn 58s
Bit rate : 1 806 Kbps
Width : 640 pixels
Height : 480 pixels
Display aspect ratio : 4:3
Frame rate : 29.970 fps
Color space : YUV
Chroma subsampling : 4:2:0
Bit depth : 8 bits
Scan type : Progressive
Compression mode : Lossy
Bits/(Pixel*Frame) : 0.196
Stream size : 310 MiB (87%)
Writing library : DivX 5.1.1 (Maupiti) (UTC 2003-11-19)
Audio #1
ID : 1
Format : MPEG Audio
Format version : Version 1
Format profile : Layer 3
Mode : Joint stereo
Mode extension : MS Stereo
Codec ID : 55
Codec ID/Hint : MP3
Duration : 23mn 58s
Bit rate mode : Constant
Bit rate : 128 Kbps
Channel(s) : 2 channels
Sampling rate : 44.1 KHz
Compression mode : Lossy
Stream size : 21.9 MiB (6%)
Alignment : Split accross interleaves
Interleave, duration : 33 ms (1.00 video frame)
Interleave, preload duration : 500 ms
Audio #2
ID : 2
Format : MPEG Audio
Format version : Version 1
Format profile : Layer 3
Mode : Joint stereo
Codec ID : 55
Codec ID/Hint : MP3
Duration : 23mn 58s
Bit rate mode : Constant
Bit rate : 128 Kbps
Channel(s) : 2 channels
Sampling rate : 44.1 KHz
Compression mode : Lossy
Delay relative to video : 7ms
Stream size : 21.9 MiB (6%)
Alignment : Split accross interleaves
Interleave, duration : 33 ms (1.00 video frame)
Interleave, preload duration : 500 ms
Список эпизодов

01. Requiem
02. Destiny of the Nutcracker, marionette version 03
03. Swan Lake
04. Memories of Anthem
05. Dal Segno in flames
06. In the name of the Five Warriors
07. Hamel the successor
08. Pandora's box
09. The outbreak. The Sforzend War II
10. Between men and demons
11. The mirror of the truth
12. At the end of the journey
13. Scars from battles
14. A new journey
15. The town of farewell, Senza
16. Ruined nation, Slur
17. As a demon
18. The last show
19. Disordered mind
20. The curtain is raised for revenge
21. Zigunerweisen
22. The last Emperor
23. Unbreakable ties
24. The opened box
25. The neverending road
Скриншоты


Автор Bot
Категория Аниме
InfoHash 07D8035BBB2A708877D3621DE9984051AC5DBF5D
Файлы (50)
Показать файлы
Трекера
Показать трекера

    Нет комментариев

Войти на сайт

Статистика

  • Всего торрентов: 80795
  • Объёмом: 477.0 Тб
  • Сидов: 2234627
  • Личеров: 171804