Все раздачи Раздачи по тегам Правила Информация Контакты

Александр Невский (1938) BDRip-AVC

Александр Невский (1938) BDRip-AVC

Информация о фильме
Название: Александр Невский
Год выпуска: 1938
Жанр: Драма, военный, история, биография
Режиссёры: Сергей Эйзенштейн, Дмитрий Васильев
В ролях: Николай Черкасов, Андрей Абрикосов, Дмитрий Орлов, Николай Охлопков, Варвара Массалитинова, Владимир Ершов, Сергей Блинников, Иван Лагутин, Лев Фенин, Наум Рогожин, Василий Новиков, Вера Ивашова, Александра Данилова, Николай Арский
Описание: На западные рубежи Руси наступают войска Тевтонского Ордена. Они захватывают Псков, жгут дома и убивают местных жителей. Рыцари делят ещё не завоеванные русские земли, присваивая себе титулы князей и надеясь на поддержку Папы Римского. Новгородский люд на вече решает собирать дружину и звать на командование ей опытного полководца князя Александра Ярославича Невского. Двое богатырей - Гаврила Алексич и Василий Буслаев вступают в княжескую дружину. Войска сходятся к берегам замёрзшего Чудского озера.

Страна: СССР
Производство: Мосфильм
Продолжительность: 01:47:45
Перевод: Не требуется
Файл
Качество: BDRip-AVC
Видео: MPEG-4 AVC, 790x576, 24.000 fps, 3590 Kbps
Аудио: AC3, 2.0 ch, 224 Kbps
Субтитры: Нет
Релиз от:
Скриншоты

MediaInfo
Общее
Уникальный идентификатор : 214055953256152022062713082120952434334 (0xA109AD50DB8616A7B4FBAC7AB7054E9E)
Полное имя : Александр Невский_1938-BDRip-AVC_KORSAR.mkv
Формат : Matroska
Версия формата : Version 2
Размер файла : 2,93 Гбайт
Продолжительность : 1 ч. 47 м.
Общий поток : 3891 Кбит/сек
Дата кодирования : UTC 2018-06-07 21:21:47
Программа кодирования : mkvmerge v5.8.0 ('No Sleep / Pillow') built on Sep 2 2012 15:37:04
Библиотека кодирования : libebml v1.2.3 + libmatroska v1.3.0
Видео
Идентификатор : 1
Формат : AVC
Формат/Информация : Advanced Video Codec
Профиль формата : High@L4.1
Параметр CABAC формата : Да
Параметр RefFrames формата : 16 кадров
Идентификатор кодека : V_MPEG4/ISO/AVC
Продолжительность : 1 ч. 47 м.
Битрейт : 3590 Кбит/сек
Ширина : 790 пикселей
Высота : 576 пикселей
Соотношение сторон : 1,372
Режим частоты кадров : Постоянный
Частота кадров : 24,000 кадра/сек
Цветовое пространство : YUV
Субдискретизация насыщенности : 4:2:0
Битовая глубина : 8 бит
Тип развёртки : Прогрессивная
Бит/(Пиксели*Кадры) : 0.329
Размер потока : 2,70 Гбайт (92%)
Заголовок : Александр Невский_1938-BDRip-AVC_KORSAR
Библиотека кодирования : x264 core 148 r2744kMod b97ae06
Настройки программы : cabac=1 / ref=16 / deblock=1:-2:-2 / analyse=0x3:0x113 / me=umh / subme=10 / psy=1 / fade_compensate=0.00 / psy_rd=1.05:0.10 / mixed_ref=1 / me_range=32 / chroma_me=1 / trellis=2 / 8x8dct=1 / cqm=0 / deadzone=21,11 / fast_pskip=1 / chroma_qp_offset=-3 / threads=12 / lookahead_threads=2 / sliced_threads=0 / nr=0 / decimate=1 / interlaced=0 / bluray_compat=0 / constrained_intra=0 / bframes=9 / b_pyramid=2 / b_adapt=2 / b_bias=0 / direct=1 / weightb=1 / open_gop=0 / weightp=2 / keyint=250 / keyint_min=24 / scenecut=40 / intra_refresh=0 / rc=crf / mbtree=0 / crf=18.0000 / qcomp=0.63 / qpmin=0 / qpmax=39 / qpstep=4 / ip_ratio=1.40 / pb_ratio=1.30 / aq=2:0.90
Язык : English
Default : Да
Forced : Нет
Цветовой диапазон : Limited
Основные цвета : BT.709
Характеристики трансфера : BT.709
Коэффициенты матрицы : BT.709
Аудио
Идентификатор : 2
Формат : AC-3
Формат/Информация : Audio Coding 3
Параметр Endianness формата : Big
Идентификатор кодека : A_AC3
Продолжительность : 1 ч. 47 м.
Вид битрейта : Постоянный
Битрейт : 224 Кбит/сек
Каналы : 2 канала
Расположение каналов : Front: L R
Частота : 48,0 КГц
Частота кадров : 31,250 кадров/сек (1536 SPF)
Битовая глубина : 16 бит
Метод сжатия : С потерями
Размер потока : 173 Мбайт (6%)
Язык : Russian
Default : Да
Forced : Нет
Автор Bot
Категория Наши фильмы
InfoHash 3AD13793B5C9C958FC18C72D2C570FA3CF51779F
Файлы (1)
Показать файлы
Трекера
Показать трекера
Похожие раздачи
Название Добавлен Размер Сид Лич
Александр Невский (1938) BDRip 18/06/2018 1.5 Гб 7 19
Александр Невский (1938) BDRip 720p 08/06/2018 5.2 Гб 1 0
Александр Невский (1938) DVDRip-AVC 23/12/2017 2.9 Гб 4 0
Александр Невский (1938) BDRip 720p 12/12/2017 5.3 Гб 0 0

    Нет комментариев

Войти на сайт

Статистика

  • Всего торрентов: 80439
  • Объёмом: 474.9 Тб
  • Сидов: 2161709
  • Личеров: 157602