Все раздачи Раздачи по тегам Правила Информация Контакты

Последний забой (2006) DVDRip-AVC

Последний забой (2006) DVDRip-AVC

Информация о фильме
Название: Последний забой
Год выхода: 2006
Жанр: Драма, комедия
Режиссер: Сергей Бобров
В ролях: Сергей Гармаш, Артур Смольянинов, Пётр Зайченко, Нина Усатова, Алексей Горбунов, Татьяна Лютаева, Наталья Наумова, Ольга Хохлова, Юлия Снигирь
О фильме: Шахтерский городок в период распада Советского Союза... Главные герои — забойщики разных возрастов и поколений. В жизни каждого из них много радостей и печалей, связанных с семьей, с родными и близкими. Для того чтобы решить свои проблемы и постараться улучшить жизнь родных, герои идут на отчаянный шаг — они планируют взорвать себя в шахте, чтобы их семьи получили компенсацию.

Выпущено: Россия, Рекун-ТВ
Продолжительность: 01:29:01
Перевод: Не требуется
Файл
Кодек: х264
Качество: DVDRip-AVC
Видео: MPEG-4 AVC, 700x458@746x458, 25.000 fps, 2850 Кбит/с
Аудио: AC3, 6 ch, 448 Кбит/с
Субтитры: Нет
Релиз от:
Скриншоты


MediaInfo
x264 [info]: frame I:769 Avg QP:17.98 size: 65545
x264 [info]: frame P:37181 Avg QP:19.39 size: 29105
x264 [info]: frame B:95580 Avg QP:21.02 size: 8057
==================================
Общее
Уникальный идентификатор : 202063601548403353859711927505574559956 (0x980408BA1337329680A1827155C600D4)
Полное имя : Последний забой (2006) DVDRip-AVC. KORSAR.mkv
Формат : Matroska
Версия формата : Version 2
Размер файла : 2,05 Гбайт
Продолжительность : 1 ч. 29 м.
Общий поток : 3300 Кбит/сек
Дата кодирования : UTC 2018-02-12 17:23:25
Программа кодирования : mkvmerge v7.8.0 ('River Man') 32bit built on Apr 3 2015 12:11:22
Библиотека кодирования : libebml v1.3.1 + libmatroska v1.4.2
Видео
Идентификатор : 1
Формат : AVC
Формат/Информация : Advanced Video Codec
Профиль формата : High@L4.1
Параметр CABAC формата : Да
Параметр ReFrames формата : 13 кадров
Идентификатор кодека : V_MPEG4/ISO/AVC
Продолжительность : 1 ч. 29 м.
Битрейт : 2850 Кбит/сек
Ширина : 700 пикселей
Высота : 458 пикселей
Соотношение сторон : 16:10
Соотношение сторон в оригинале : 16:10
Режим частоты кадров : Постоянный
Частота кадров : 25,000 кадров/сек
Цветовое пространство : YUV
Субдискретизация насыщенности : 4:2:0
Битовая глубина : 8 бит
Тип развёртки : Прогрессивная
Бит/(Пиксели*Кадры) : 0.356
Размер потока : 1,73 Гбайт (84%)
Библиотека кодирования : x264 core 148 r2744kMod b97ae06
Настройки программы : cabac=1 / ref=13 / deblock=1:-2:-1 / analyse=0x3:0x133 / me=umh / subme=10 / psy=1 / fade_compensate=0.00 / psy_rd=1.05:0.10 / mixed_ref=1 / me_range=32 / chroma_me=1 / trellis=2 / 8x8dct=1 / cqm=0 / deadzone=21,11 / fast_pskip=0 / chroma_qp_offset=-3 / threads=6 / lookahead_threads=1 / sliced_threads=0 / nr=0 / decimate=0 / interlaced=0 / bluray_compat=0 / constrained_intra=0 / bframes=8 / b_pyramid=2 / b_adapt=2 / b_bias=0 / direct=3 / weightb=1 / open_gop=0 / weightp=2 / keyint=250 / keyint_min=25 / scenecut=40 / intra_refresh=0 / rc=2pass / mbtree=0 / bitrate=2850 / ratetol=1.0 / qcomp=0.63 / qpmin=0 / qpmax=39 / qpstep=4 / cplxblur=20.0 / qblur=0.5 / ip_ratio=1.10 / pb_ratio=1.30 / aq=1:1.00
Язык : Russian
Default : Да
Forced : Нет
Цветовой диапазон : Limited
Основные цвета : BT.601 PAL
Характеристики трансфера : BT.470 System B, BT.470 System G
Коэффициенты матрицы : BT.601
Аудио
Идентификатор : 2
Формат : AC-3
Формат/Информация : Audio Coding 3
Параметр Endianness формата : Big
Идентификатор кодека : A_AC3
Продолжительность : 1 ч. 29 м.
Вид битрейта : Постоянный
Битрейт : 448 Кбит/сек
Каналы : 6 каналов
Расположение каналов : Front: L C R, Side: L R, LFE
Частота : 48,0 КГц
Частота кадров : 31,250 кадров/сек (1536 spf)
Битовая глубина : 16 бит
Метод сжатия : С потерями
Размер потока : 285 Мбайт (14%)
Язык : Russian
Default : Да
Forced : Нет
Автор Bot
Категория Наши фильмы
InfoHash 6C1DB1E905E35951E5FD11692D128586E3B3710B
Файлы (1)
Показать файлы
Трекера
Показать трекера

    Нет комментариев

Войти на сайт

Статистика

  • Всего торрентов: 92228
  • Объёмом: 551.7 Тб
  • Сидов: 2981094
  • Личеров: 184128