Все раздачи Раздачи по тегам Правила Информация Контакты

Излом времени / A Wrinkle in Time (2018) UHD BDRemux 2160p | HDR | iTunes

Излом времени / A Wrinkle in Time (2018) UHD BDRemux 2160p | HDR | iTunes

Излом времени
A Wrinkle in Time
«Be a warrior»

Информация о фильме
Название: Излом времени
Оригинальное название: A Wrinkle in Time
Год выпуска: 2018
Жанр: Фантастика, фэнтези, приключения, семейный
Выпущено: США, Walt Disney Pictures
Режиссер: Ава ДюВерней
В ролях: Сторм Рейд, Опра Уинфри, Риз Уизерспун, Минди Кейлинг, Леви Миллер, Дерик Маккейб, Крис Пайн, Гугу Мбата-Роу, Зак Галифианакис, Майкл Пенья, Андре Холлэнд, Роуэн Бланчард, Беллами Янг, Дэвид Ойелоуо, Конрад Робертс, Ивет Кейсон, Уилл МакКормак, Дэниэл МакФерсон, Тэрин Лук, Тим Кенг, Лайрик Уилсон
Продолжительность: 01:55:25
Описание:
Юная Мэг вместе с младшим братом и школьным приятелем решает отправиться на поиски своего отца, учёного-физика, пропавшего в ходе научного эксперимента. Найти его предстоит не в привычном мире, а в таинственных изломах времени и пространства, где понятие реальности относительно и ничему нельзя верить! Выбраться из фантастических миров и победить тьму, которая распространяется по вселенной, можно, только изучив себя и приняв свои недостатки.


Файл
Контейнер: MKV
Качество: BDRemux 2160p
Имя файла: A.Wrinkle.in.Time.2018.UHD.BDRemux.2160p.4K.UltraHD.HEVC.HDR.IVA(RUS.ENG).ExKinoRay.mkv
Размер файла: 47.9 GB
Длительность: 1 h 49 min
Общий битрейт: 62.5 Mb/s
Видео: HEVC, 3840x2160 (16:9), 23.976 fps, 52.6 Mb/s (0.265 bit/pixel)
Аудио #1: AC-3, 48.0 kHz, 6 ch, 384 kb/s, CBR (Russian) | Дублированный, iTunes |
Аудио #2: TrueHD+Atmos, 48.0 kHz, 8 ch, 7501 kb/s, VBR (English) | Original |
Аудио #3: E-AC-3, 48.0 kHz, 8 ch, 1024 kb/s, CBR (English) | Original |
Аудио #4: AC-3, 48.0 kHz, 6 ch, 640 kb/s, CBR (English) | Original |
Аудио #5: AC-3, 48.0 kHz, 2 ch, 320 kb/s, CBR (English) | Audiodeion |
Субтитры: Russian (full), English (full, SDH)
Релиз от: Автор релиза: Ivantsov
Скриншоты





MI

Общее
Уникальный идентификатор : 129136689031246123064123715235968231576 (0x6126D25680C004A0854BFCE4E310A898)
Полное имя : A.Wrinkle.in.Time.2018.UHD.BDRemux.2160p.4K.UltraHD.HEVC.HDR.IVA(RUS.ENG).ExKinoRay.mkv
Формат : Matroska
Версия формата : Version 4 / Version 2
Размер файла : 47,9 Гбайт
Продолжительность : 1 ч. 49 м.
Режим общего битрейта : Переменный
Общий поток : 62,5 Мбит/сек
Название фильма : Излом времени / A Wrinkle in Time ( 2018 ) UHD BDRemux | HDR, 4K | IVA(RUS.ENG) | ExKinoRay
Дата кодирования : UTC 2018-06-08 20:26:23
Программа кодирования : mkvmerge v23.0.0 ('The Bride Said No') 64-bit
Библиотека кодирования : libebml v1.3.6 + libmatroska v1.4.9
Обложка : Yes
Attachments : cover
Видео
Идентификатор : 1
Формат : HEVC
Формат/Информация : High Efficiency Video Coding
Коммерческое название : HDR10
Профиль формата : Main 10@L5.1@High
Идентификатор кодека : V_MPEGH/ISO/HEVC
Продолжительность : 1 ч. 49 м.
Битрейт : 52,6 Мбит/сек
Ширина : 3840 пикселей
Высота : 2160 пикселей
Соотношение сторон : 16:9
Режим частоты кадров : Постоянный
Частота кадров : 23,976 (24000/1001) кадра/сек
Цветовое пространство : YUV
Субдискретизация насыщенности : 4:2:0 (Type 2)
Битовая глубина : 10 бит
Бит/(Пиксели*Кадры) : 0.265
Размер потока : 40,3 Гбайт (84%)
Язык : English
Default : Да
Forced : Нет
Цветовой диапазон : Limited
Основные цвета : BT.2020
Характеристики трансфера : PQ
Коэффициенты матрицы : BT.2020 non-constant
MasteringDisplay_Luminance : min: 0.0001 cd/m2, max: 1000 cd/m2
Аудио #1
Идентификатор : 2
Формат : AC-3
Формат/Информация : Audio Coding 3
Идентификатор кодека : A_AC3
Продолжительность : 1 ч. 49 м.
Вид битрейта : Постоянный
Битрейт : 384 Кбит/сек
Каналы : 6 каналов
Расположение каналов : Front: L C R, Side: L R, LFE
Частота : 48,0 КГц
Частота кадров : 31,250 кадров/сек (1536 SPF)
Битовая глубина : 16 бит
Метод сжатия : С потерями
Размер потока : 302 Мбайт (1%)
Заголовок : | Дублированный, iTunes |
Язык : Russian
ServiceKind : Complete Main
Default : Да
Forced : Нет
Аудио #2
Идентификатор : 3
Формат : TrueHD
Профиль формата : TrueHD+Atmos / TrueHD
Идентификатор кодека : A_TRUEHD
Продолжительность : 1 ч. 49 м.
Вид битрейта : Переменный
Битрейт : 7501 Кбит/сек
Максимальный битрейт : 11,7 Мбит/сек
Каналы : Object Based / 8 каналов
Расположение каналов : Object Based / Front: L C R, Side: L R, Back: L R, LFE
Частота : / 48,0 КГц
Частота кадров : 1200,000 кадров/сек (40 SPF)
Метод сжатия : Без потерь
Задержка видео : 32 мс.
Размер потока : 5,74 Гбайт (12%)
Заголовок : | Original |
Язык : English
Default : Нет
Forced : Нет
Аудио #3
Идентификатор : 4
Формат : E-AC-3
Формат/Информация : Enhanced Audio Coding 3
Идентификатор кодека : A_EAC3
Продолжительность : 1 ч. 49 м.
Вид битрейта : Постоянный
Битрейт : 1024 кбит/сек
Каналы : 8 каналов
Расположение каналов : Front: L C R, Side: L R, Back: L R, LFE
Частота : 48,0 КГц
Частота кадров : 187,500 кадров/сек (256 SPF)
Метод сжатия : С потерями
Размер потока : 803 Мбайт (2%)
Заголовок : | Original, DD+ |
Язык : English
ServiceKind : Complete Main
Default : Нет
Forced : Нет
Аудио #4
Идентификатор : 5
Формат : AC-3
Формат/Информация : Audio Coding 3
Идентификатор кодека : A_AC3
Продолжительность : 1 ч. 49 м.
Вид битрейта : Постоянный
Битрейт : 640 Кбит/сек
Каналы : 6 каналов
Расположение каналов : Front: L C R, Side: L R, LFE
Частота : 48,0 КГц
Частота кадров : 31,250 кадров/сек (1536 SPF)
Битовая глубина : 16 бит
Метод сжатия : С потерями
Задержка видео : 31 мс.
Размер потока : 502 Мбайт (1%)
Заголовок : | Original, AC3 Core |
Язык : English
ServiceKind : Complete Main
Default : Нет
Forced : Нет
Аудио #5
Идентификатор : 6
Формат : AC-3
Формат/Информация : Audio Coding 3
Идентификатор кодека : A_AC3
Продолжительность : 1 ч. 49 м.
Вид битрейта : Постоянный
Битрейт : 320 Кбит/сек
Каналы : 2 канала
Расположение каналов : Front: L R
Частота : 48,0 КГц
Частота кадров : 31,250 кадров/сек (1536 SPF)
Битовая глубина : 16 бит
Метод сжатия : С потерями
Размер потока : 251 Мбайт (1%)
Заголовок : | Audiodeion |
Язык : English
ServiceKind : Complete Main
Default : Нет
Forced : Нет
Текст #1
Идентификатор : 7
Формат : UTF-8
Идентификатор кодека : S_TEXT/UTF8
Идентификатор кодека/Информация : UTF-8 Plain Text
Продолжительность : 1 ч. 38 м.
Битрейт : 74 бит/сек
ElementCount : 1302
Размер потока : 53,7 Кбайт (0%)
Заголовок : Full
Язык : Russian
Default : Нет
Forced : Нет
Текст #2
Идентификатор : 8
Формат : UTF-8
Идентификатор кодека : S_TEXT/UTF8
Идентификатор кодека/Информация : UTF-8 Plain Text
Продолжительность : 1 ч. 45 м.
Битрейт : 46 бит/сек
ElementCount : 1433
Размер потока : 35,6 Кбайт (0%)
Заголовок : Full
Язык : English
Default : Нет
Forced : Нет
Текст #3
Идентификатор : 9
Формат : UTF-8
Идентификатор кодека : S_TEXT/UTF8
Идентификатор кодека/Информация : UTF-8 Plain Text
Продолжительность : 1 ч. 46 м.
Битрейт : 51 бит/сек
ElementCount : 1597
Размер потока : 40,7 Кбайт (0%)
Заголовок : SDH
Язык : English
Default : Нет
Forced : Нет
Меню
00:00:00.000 : en:Chapter 1
00:09:39.870 : en:Chapter 2
00:13:46.867 : en:Chapter 3
00:18:04.083 : en:Chapter 4
00:21:28.287 : en:Chapter 5
00:28:32.502 : en:Chapter 6
00:39:14.810 : en:Chapter 7
00:48:41.251 : en:Chapter 8
00:54:03.198 : en:Chapter 9
01:03:04.530 : en:Chapter 10
01:09:48.267 : en:Chapter 11
01:19:03.196 : en:Chapter 12
01:29:05.548 : en:Chapter 13
01:40:03.497 : en:Chapter 14
Автор Bot
Категория Мультипликация
InfoHash 8E9BF310A69A6AD7DA5C369F4EF5628C5E232538
Файлы (1)
Показать файлы
Трекера
Показать трекера

    Нет комментариев

Войти на сайт

Статистика

  • Всего торрентов: 92089
  • Объёмом: 550.2 Тб
  • Сидов: 3003065
  • Личеров: 185572