Все раздачи Раздачи по тегам Правила Информация Контакты

Хлеб и розы (1960) SATRip

Хлеб и розы (1960) SATRip

Страна: СССР
Производство: Мосфильм
Жанр: драма
Год выпуска: 1960
Продолжительность: 01:30:56
Перевод: Не требуется
Cубтитры: нет
Оригинальная аудиодорожка: русский
Режиссер: Федор Филиппов
В ролях:
Павел Кадочников, Людмила Касаткина, Александра Завьялова, Сергей Калинин, Анатолий Соловьёв, Анатолий Кубацкий, Глеб Глебов, Эдуард Бредун, Леонид Пархоменко, Павел Волков, Александра Данилова, Инна Фёдорова, Клавдия Хабарова, Раднэр Муратов, Сергей Юртайкин, Юрий Дубровин, Е. Кушнерайт...
Об актёрах подробней
Описание:
По одноименной пьесе А.Салынского.
Молодой питерский рабочий Гавриил Ивушкин (Павел Кадочников) отправился со своими товарищами в алтайскую степь строить коммуну. Там горожане показали беднякам, как надо работать. Холод и голод, борьба с контрреволюцией - все выдержал Гавриил Ивушкин. Но скрыть своего чувства к красавице Любаше Тиуновой (Александра Завьялова), дочери местного кулака, не смог. Любаша тоже полюбила Ивушкина, но многое в нем было для нее новым и непонятным. Их пути разойдутся, но придет время и Любаша все бросит ради того, чтобы быть рядом с Гавриилом.

Исходник: DVB
Качество видео: SATRip
Формат видео: AVI
Видео: 704x400 (16:9), 25,000 кадров/сек, XviD ~ 1514 kbps avg, 0.215 bit/pixel
Аудио: 48 kHz, Dolby Digital AC3 2.0, 192 kbps
Раздача от:
MediaInfo

Общее
Полное имя : Hleb.i.rozy.1960.SATRip_[New-team]_by_AVP_Studio.avi
Формат : AVI
Формат/Информация : Audio Video Interleave
Размер файла : 1,09 Гбайт
Продолжительность : 1 ч. 30 м.
Общий поток : 1716 Кбит/сек
Программа кодирования : VirtualDubMod 1.5.10.3 | www.virtualdub-fr.org || (build 2550/release)
Библиотека кодирования : VirtualDubMod build 2550/release
Видео
Идентификатор : 0
Формат : MPEG-4 Visual
Профиль формата : Advanced Simple@L5
Настройки формата : BVOP1 / Custom Matrix
Параметр BVOP формата : 1
Параметр QPel формата : Нет
Параметр GMC формата : Без точки перехода
Параметр матрицы формата : Выборочная
Идентификатор кодека : XVID
Идентификатор кодека/Подсказка : XviD
Продолжительность : 1 ч. 30 м.
Битрейт : 1514 Кбит/сек
Ширина : 704 пикселя
Высота : 400 пикселей
Соотношение сторон : 16:9
Частота кадров : 25,000 кадров/сек
Цветовое пространство : YUV
Субдискретизация насыщенности : 4:2:0
Битовая глубина : 8 бит
Тип развёртки : Прогрессивная
Метод сжатия : С потерями
Бит/(Пиксели*Кадры) : 0.215
Размер потока : 985 Мбайт (88%)
Библиотека кодирования : XviD 73
Аудио
Идентификатор : 1
Формат : AC-3
Формат/Информация : Audio Coding 3
Идентификатор кодека : 2000
Продолжительность : 1 ч. 30 м.
Вид битрейта : Постоянный
Битрейт : 192 Кбит/сек
Каналы : 2 канала
Расположение каналов : Front: L R
Частота : 48,0 КГц
Частота кадров : 31,250 кадров/сек (1536 SPF)
Битовая глубина : 16 бит
Метод сжатия : С потерями
Размер потока : 125 Мбайт (11%)
Выравнивание : Разделение по промежуткам
Продолжительность промежутка : 40 мс. (1,00 видеокадр)
Время предзагрузки промежутка : 500 мс

Скриншоты


Автор Bot
Категория Наши фильмы
InfoHash 622F0F9BC5C7E114FA8F0122570BE29BEBD31230
Файлы (1)
Показать файлы
Трекера
Показать трекера
Похожие раздачи
Название Добавлен Размер Сид Лич
Хлеб и розы (1960) SATRip-AVC 09/06/2018 1.1 Гб 11 0

    Нет комментариев

Войти на сайт

Статистика

  • Всего торрентов: 80439
  • Объёмом: 474.9 Тб
  • Сидов: 2161613
  • Личеров: 157545