Все раздачи Раздачи по тегам Правила Информация Контакты

Герои Шипки (1954) DVDRip-AVC

Герои Шипки (1954) DVDRip-AVC

Герои Шипки

Страна: СССР, Болгария
Жанр: Историко-биографический фильм
Год выпуска: 1954
Продолжительность: 01:56:34
Перевод: Не требуется
Режиссер: Сергей Васильев
В ролях: И.Переверзев, В.Авдюшко, Г.Юматов, К.Сорокин, А.Алексеев, П.Карлуковский, А.Карамитев, С.Пейчев, Н.Генов, Е.Божинова, К.Чукова, С.Папов, Е.Самойлов, А.Киреев, Г.Громов, В.Чобур, А.Смирнов, А.Христов, Е.Деммени, М.Трояновский, Э.Гаррик, И.Кононенко, А.Савостьянов, Н.Массалитинов, С.Курилов, А.Холодков, К.Старостин, Г.Ганчев, В.Леонов, Д.Даковский, К.Кисимов, Э.Тагаров, Г.Стаматов
Описание: Пять веков славянские народы Балканского полуострова находились под игом османских турок. В 1877 году Россия объявляет войну Турции. Под руководством талантливых генералов в суровых природных условиях русские и болгарские воины одерживают ряд крупных побед. Разбив врага под Плевной, русско-болгарская армия движется на Стамбул.
И хотя Россию под нажимом западных государств, боящихся ее усиления, вынуждают прекратить войну, благородная цель достигнута - болгарские народы освободились от турецкого ига.

Кодек: х264
Качество: DVDRip-AVC
Видео: MPEG-4 AVC, 698х576@744x576, 25 fps, 3200 Кбит/с
Аудио: АС3, 2 сh, 192 Кбит/с
Субтитры: Нет
Главы: Есть
Инфо файл

x264 [info]: frame I:977 Avg QP:17.17 size: 85292
x264 [info]: frame P:37979 Avg QP:19.56 size: 41268
x264 [info]: frame B:135894 Avg QP:21.07 size: 8437
Общее
Уникальный идентификатор : 213638192613058237801120249765731712083 (0xA0B938203B7739AAAC18E96E36C73C53)
Полное имя : I:СССРГерои Шипки 1954_DVDRip-AVC_KORSAR.mkv
Формат : Matroska
Версия формата : Version 2
Размер файла : 2,76 Гбайт
Продолжительность : 1 ч. 56 м.
Общий поток : 3393 Кбит/сек
Дата кодирования : UTC 2018-06-07 08:27:57
Программа кодирования : mkvmerge v5.8.0 ('No Sleep / Pillow') built on Sep 2 2012 15:37:04
Библиотека кодирования : libebml v1.2.3 + libmatroska v1.3.0
Видео
Идентификатор : 1
Формат : AVC
Формат/Информация : Advanced Video Codec
Профиль формата : High@L4.1
Настройки формата : CABAC / 14 Ref Frames
Параметр CABAC формата : Да
Параметр RefFrames формата : 14 кадров
Идентификатор кодека : V_MPEG4/ISO/AVC
Продолжительность : 1 ч. 56 м.
Битрейт : 3200 Кбит/сек
Ширина : 698 пикселей
Высота : 576 пикселей
Соотношение сторон : 1,292
Соотношение сторон в оригинале : 1,293
Режим частоты кадров : Постоянный
Частота кадров : 25,000 кадров/сек
Цветовое пространство : YUV
Субдискретизация насыщенности : 4:2:0
Битовая глубина : 8 бит
Тип развёртки : Прогрессивная
Бит/(Пиксели*Кадры) : 0.318
Размер потока : 2,55 Гбайт (92%)
Библиотека кодирования : x264 core 152 r2851kMod ba24899
Настройки программы : cabac=1 / ref=14 / deblock=1:-2:-1 / analyse=0x3:0x133 / me=umh / subme=11 / psy=1 / fade_compensate=0.00 / psy_rd=1.02:0.07 / mixed_ref=1 / me_range=48 / chroma_me=1 / trellis=2 / 8x8dct=1 / cqm=0 / deadzone=21,11 / fast_pskip=0 / chroma_qp_offset=-3 / threads=12 / lookahead_threads=3 / sliced_threads=0 / nr=0 / decimate=0 / interlaced=0 / bluray_compat=0 / constrained_intra=0 / bframes=10 / b_pyramid=2 / b_adapt=2 / b_bias=0 / direct=3 / weightb=1 / open_gop=0 / weightp=2 / keyint=250 / keyint_min=25 / scenecut=40 / intra_refresh=0 / rc_lookahead=40 / rc=2pass / mbtree=0 / bitrate=3200 / ratetol=1.0 / qcomp=0.60 / qpmin=0 / qpmax=39 / qpstep=4 / cplxblur=20.0 / qblur=0.5 / vbv_maxrate=50000 / vbv_bufsize=62500 / nal_hrd=none / filler=0 / ip_ratio=1.25 / pb_ratio=1.30 / aq=1:1.00
Язык : English
Default : Да
Forced : Нет
Цветовой диапазон : Limited
Основные цвета : BT.601 PAL
Характеристики трансфера : BT.470 System B, BT.470 System G
Коэффициенты матрицы : BT.470 System B, BT.470 System G
Аудио
Идентификатор : 2
Формат : AC-3
Формат/Информация : Audio Coding 3
Параметр Endianness формата : Big
Идентификатор кодека : A_AC3
Продолжительность : 1 ч. 56 м.
Вид битрейта : Постоянный
Битрейт : 192 Кбит/сек
Каналы : 2 канала
Расположение каналов : Front: L R
Частота : 48,0 КГц
Частота кадров : 31,250 кадров/сек (1536 SPF)
Битовая глубина : 16 бит
Метод сжатия : С потерями
Размер потока : 160 Мбайт (6%)
Язык : Russian
Default : Да
Forced : Нет
Меню
00:00:00.000 : en:Chapter 1
00:18:43.200 : en:Chapter 2
00:37:39.840 : en:Chapter 3
00:55:52.800 : en:Chapter 4
01:18:00.960 : en:Chapter 5
01:39:57.600 : en:Chapter 6

Скриншоты


Автор Bot
Категория Наши фильмы
InfoHash 72E7E3BBAB20D80C43252BED3E2E7D21F70AF35E
Файлы (1)
Показать файлы
Трекера
Показать трекера
Похожие раздачи
Название Добавлен Размер Сид Лич
Герои Шипки (1954) DVDRip 23/12/2017 1.1 Гб 0 0
Герои Шипки (1954) DVDRip 23/12/2017 1.5 Гб 1 1
Герои Шипки (1954) DVDRip-AVC 23/12/2017 1.5 Гб 4 0

    Нет комментариев

Войти на сайт

Статистика

  • Всего торрентов: 80439
  • Объёмом: 474.9 Тб
  • Сидов: 2160678
  • Личеров: 157645