Все раздачи Раздачи по тегам Правила Информация Контакты

Жизнь и необычайные приключения солдата Ивана Чонкина (1994) DVDRip-AVC

Жизнь и необычайные приключения солдата Ивана Чонкина (1994) DVDRip-AVC

Жизнь и необычайные приключения солдата Ивана Чонкина

Страна: Россия, Франция, Англия, Италия, Чехия
Жанр: Мелодрама, комедия, военный
Год выпуска: 1994
Продолжительность: 01:44:07
Перевод: Не требуется
Режиссер: Иржи Менцель / Jiří Menze
В ролях: Влaдимиp Ильин, Гeннaдий Haзapoв, Aлeкceй Жapкoв, Зинoвий Гepдт, Вaлepий Зoлoтухин, Зoя Буpяк, Ивaн Pыжoв, Taтьянa Oшуpкoвa, Гaлинa Пeтpoвa, Aлeкcaндp Moхoв, Cepгeй Cтeпaнчeнкo, Mapия Винoгpaдoвa, Taтьянa Aгaфoнoвa, Oльгa Aнoхинa, Aвaнгapд Лeoнтьeв, Cepгeй Гapмaш, Любoвь Pуднeвa, Юpий Дубpoвин, Мариан Лабуда - это тот, который на обложке с усами
Описание: Экранизация одноименной сатирической книги Владимира Войновича, широко известной в нашей стране. Картина удачно передала стилистику книги — абсурд и гротеск доведены до пропорций смешных до истерики, но лиризм при всем этом присутствует. Сравнить это можно только с похождениями бравого солдата Швейка.
Первая киноверсия знаменитого сатирического романа Владимира Войновича снята в Чехии знаменитым режиссером Иржи Менцелем необыкновенно деликатно и лирически. Летел себе по небу ероплан. Летел-летел, а потом взял да и сверзился на нашу родную советскую землю. Но не смертоубийственно сверзился, а так, из серии вынужденной посадки. Летчик, пережив кратковременный шок от общения с любопытными колхозниками, уехал в свою эскадрилью, а самолет так и остался торчать посреди поля, как торжество человеческой мысли над человеческим разумом.

Кодек: х264
Качество: DVDRip-AVC
Видео: MPEG-4 AVC, 648х576@921x576, 25 fps, 2650 Кбит/с
Аудио 1: Русский, АС3, 2 сh, 192 Кбит/с
Аудио 2: Французский, АС3, 2 сh, 192 Кбит/с
Субтитры: Нет
Главы: Есть
Инфо файл

x264 [info]: frame I:923 Avg QP:17.63 size: 73100
x264 [info]: frame P:37604 Avg QP:20.22 size: 29249
x264 [info]: frame B:117649 Avg QP:22.09 size: 7683
Общее
Уникальный идентификатор : 252415475039065976753662728451032800327 (0xBDE573C219060FD38F30910BEA7EDC47)
Полное имя : I:Наше современное киноЖизнь и необычайные приключения солдата Ивана Чонкина 1994_DVDRip-AVC_KORSAR.mkv
Формат : Matroska
Версия формата : Version 2
Размер файла : 2,21 Гбайт
Продолжительность : 1 ч. 44 м.
Общий поток : 3039 Кбит/сек
Название фильма : mister.hats
Дата кодирования : UTC 2018-06-07 17:00:20
Программа кодирования : mkvmerge v5.8.0 ('No Sleep / Pillow') built on Sep 2 2012 15:37:04
Библиотека кодирования : libebml v1.2.3 + libmatroska v1.3.0
Видео
Идентификатор : 1
Формат : AVC
Формат/Информация : Advanced Video Codec
Профиль формата : High@L4.1
Настройки формата : CABAC / 14 Ref Frames
Параметр CABAC формата : Да
Параметр RefFrames формата : 14 кадров
Идентификатор кодека : V_MPEG4/ISO/AVC
Продолжительность : 1 ч. 44 м.
Битрейт : 2650 Кбит/сек
Ширина : 648 пикселей
Высота : 576 пикселей
Соотношение сторон : 16:10
Соотношение сторон в оригинале : 16:10
Режим частоты кадров : Постоянный
Частота кадров : 25,000 кадров/сек
Цветовое пространство : YUV
Субдискретизация насыщенности : 4:2:0
Битовая глубина : 8 бит
Тип развёртки : Прогрессивная
Бит/(Пиксели*Кадры) : 0.284
Размер потока : 1,89 Гбайт (85%)
Библиотека кодирования : x264 core 152 r2851kMod ba24899
Настройки программы : cabac=1 / ref=14 / deblock=1:-2:-2 / analyse=0x3:0x133 / me=umh / subme=11 / psy=1 / fade_compensate=0.00 / psy_rd=1.05:0.10 / mixed_ref=1 / me_range=48 / chroma_me=1 / trellis=2 / 8x8dct=1 / cqm=0 / deadzone=21,11 / fast_pskip=0 / chroma_qp_offset=-3 / threads=12 / lookahead_threads=3 / sliced_threads=0 / nr=0 / decimate=0 / interlaced=0 / bluray_compat=0 / constrained_intra=0 / bframes=15 / b_pyramid=2 / b_adapt=2 / b_bias=0 / direct=3 / weightb=1 / open_gop=0 / weightp=2 / keyint=250 / keyint_min=25 / scenecut=40 / intra_refresh=0 / rc_lookahead=40 / rc=2pass / mbtree=0 / bitrate=2650 / ratetol=1.0 / qcomp=0.60 / qpmin=0 / qpmax=39 / qpstep=4 / cplxblur=20.0 / qblur=0.5 / vbv_maxrate=50000 / vbv_bufsize=62500 / nal_hrd=none / filler=0 / ip_ratio=1.25 / pb_ratio=1.30 / aq=1:1.00
Язык : English
Default : Да
Forced : Нет
Цветовой диапазон : Limited
Основные цвета : BT.601 PAL
Характеристики трансфера : BT.470 System B, BT.470 System G
Коэффициенты матрицы : BT.470 System B, BT.470 System G
Аудио #1
Идентификатор : 2
Формат : AC-3
Формат/Информация : Audio Coding 3
Параметр Endianness формата : Big
Идентификатор кодека : A_AC3
Продолжительность : 1 ч. 44 м.
Вид битрейта : Постоянный
Битрейт : 192 Кбит/сек
Каналы : 2 канала
Расположение каналов : Front: L R
Частота : 48,0 КГц
Частота кадров : 31,250 кадров/сек (1536 SPF)
Битовая глубина : 16 бит
Метод сжатия : С потерями
Размер потока : 143 Мбайт (6%)
Язык : Russian
Default : Да
Forced : Нет
Аудио #2
Идентификатор : 3
Формат : AC-3
Формат/Информация : Audio Coding 3
Параметр Endianness формата : Big
Идентификатор кодека : A_AC3
Продолжительность : 1 ч. 44 м.
Вид битрейта : Постоянный
Битрейт : 192 Кбит/сек
Каналы : 2 канала
Расположение каналов : Front: L R
Частота : 48,0 КГц
Частота кадров : 31,250 кадров/сек (1536 SPF)
Битовая глубина : 16 бит
Метод сжатия : С потерями
Размер потока : 143 Мбайт (6%)
Язык : French
Default : Нет
Forced : Нет
Меню
00:00:00.000 : en:Chapter 1
00:12:37.760 : en:Chapter 2
00:20:09.920 : en:Chapter 3
00:31:57.280 : en:Chapter 4
00:41:10.240 : en:Chapter 5
00:50:00.000 : en:Chapter 6
01:00:58.240 : en:Chapter 7
01:10:41.440 : en:Chapter 8
01:23:03.040 : en:Chapter 9
01:32:04.160 : en:Chapter 10
01:44:07.000 : en:Chapter 11

Скриншоты


Автор Bot
Категория Наши фильмы
InfoHash 0762C4AC5A99BBE3F42221E601FF87A324B5636B
Файлы (1)
Показать файлы
Трекера
Показать трекера
Похожие раздачи

    Нет комментариев

Войти на сайт

Статистика

  • Всего торрентов: 80594
  • Объёмом: 475.7 Тб
  • Сидов: 2126534
  • Личеров: 166401