Все раздачи Раздачи по тегам Правила Информация Контакты

Гаро: Тающая линия / Garo: Vanishing Line [S01] (2017) WEBRip 720p | KANSAI, SHIZA Project

Гаро: Тающая линия / Garo: Vanishing Line [S01] (2017) WEBRip 720p | KANSAI, SHIZA Project

Информация о фильме
Название: Гаро: Тающая линия
Оригинальное название: Garo: Vanishing Line
Год выхода: 2017
Жанр: приключения, фэнтези
Режиссер: Пак Сон Ху
Художник: Минэта Ёсими
В ролях: Сэки Томокадзу, Кугимия Риэ, Симадзаки Нобунага, Косимидзу Ами, Мисаки Юка, Такахаси Тиаки, Хаси Такая, Такагаки Аяхи, Намикава Дайсукэ, Пак Роми, Хориути Кэнъю, Кагэяма Хиронобу
О фильме:
Добро пожаловать в процветающий город Рассел. Кажется, жизнь здесь протекает размеренно и благополучно, пока внезапно не начинают происходить загадочные и необъяснимые происшествия. Эти события ставят весь город на уши.Парень по имени Сворд становится одним из тех, кто узнаёт о скрытой угрозе, и решает бросить все свои силы на её устранение. Но единственная его подсказка — это слово «Эльдорадо». Вскоре героя настигает ещё одна беда — исчезает его сестра.Гуляя по ночному городу в раздумьях, Сворд встречает девушку Софи, чей брат бесследно пропал, оставив ей лишь одно послание с теми же словами. Сворд решает объединить свои усилия вместе с Софией, чтобы разузнать тайну этих загадочных слов.

World Art | MAL
Страна: Япония
Студия: MAPPA
Продолжительность: 00:24:00
Язык: Русский, Японский
Перевод: Любительский (многоголосый, закадровый)
Файл
Качество: WEBRip
Формат: MKV
Кодек: H.264
Аудио кодек: AAC
Видео: 1280x720, 23.976 fps, 1800 kbps
Аудио RUS: 48.0 kHz, AAC, 2 ch, 192 kbps - KANSAI
Аудио RUS: 44.1 kHz, AAC, 2 ch, 124 kbps - SHIZA Project
Аудио JAP: 44.1 kHz, AAC, 2 ch, 124 kbps
Субтитры: русские (встроенные полный перевод, ASS) - Bazaar Zetsubou
Субтитры: русские (встроенные полный перевод, ASS) - Sharatan & Octupus
Озвучка
Релиз от:
Озвучивание: nDrOiDze, gobr, Lianna (01-17), Viki, Лизавета (18-24)
Перевод: Sovet Romantica (01-12), MedusaSub (13-24)
Тайминг и работа со звуком: Foxy
Скриншоты

Список серий
01. Сорд
02. Люк
03. Джина
04. Брат
05. Кольцо
06. Сложность
07. Разведчик
08. Найт
09. В добрый путь
10. Перерождение
11. Похищение
12. Семья
13. Божья Воля
14. Наследие
15. Эльдорадо
16. Случайная Встреча
17. Под косую черту
18. Иллюзия
19. Прощание
20. Утопия
21. Причина и следствие
22. Свет Ю
23. Моя сестра
24. Будущее
MediaInfo
General
Format : Matroska
Format version : Version 4 / Version 2
File size : 380 MiB
Duration : 24 min
Overall bit rate : 2 209 kb/s
Encoded date : UTC 2018-06-08 15:51:21
Writing application : mkvmerge v8.3.0 ('Over the Horizon') 64bit
Writing library : libebml v1.3.1 + libmatroska v1.4.2
Video
ID : 1
Format : AVC
Format/Info : Advanced Video Codec
Format profile : High@L4
Format settings, CABAC : Yes
Format settings, ReFrames : 6 frames
Codec ID : V_MPEG4/ISO/AVC
Duration : 23 min
Bit rate : 1 776 kb/s
Width : 1 280 pixels
Height : 720 pixels
Display aspect ratio : 16:9
Frame rate mode : Variable
Frame rate : 23.976 (23976/1000) FPS
Color space : YUV
Chroma subsampling : 4:2:0
Bit depth : 8 bits
Scan type : Progressive
Bits/(Pixel*Frame) : 0.080
Stream size : 304 MiB (80%)
Writing library : x264 core 120 r2120 0c7dab9
Encoding settings : cabac=1 / ref=6 / deblock=1:1:1 / analyse=0x3:0x113 / me=umh / subme=8 / psy=1 / psy_rd=0.40:0.00 / mixed_ref=1 / me_range=16 / chroma_me=1 / trellis=1 / 8x8dct=1 / cqm=0 / deadzone=21,11 / fast_pskip=1 / chroma_qp_offset=-2 / threads=4 / sliced_threads=0 / nr=0 / decimate=1 / interlaced=0 / bluray_compat=0 / constrained_intra=0 / bframes=3 / b_pyramid=2 / b_adapt=2 / b_bias=0 / direct=3 / weightb=1 / open_gop=0 / weightp=2 / keyint=250 / keyint_min=23 / scenecut=40 / intra_refresh=0 / rc_lookahead=50 / rc=2pass / mbtree=1 / bitrate=1776 / ratetol=1.0 / qcomp=0.60 / qpmin=0 / qpmax=69 / qpstep=4 / cplxblur=20.0 / qblur=0.5 / vbv_maxrate=3552 / vbv_bufsize=8880 / nal_hrd=none / ip_ratio=1.40 / aq=1:0.60
Default : Yes
Forced : No
Audio #1
ID : 2
Format : AAC
Format/Info : Advanced Audio Codec
Format profile : LC
Codec ID : A_AAC
Duration : 24 min
Bit rate : 192 kb/s
Channel(s) : 2 channels
Channel positions : Front: L R
Sampling rate : 48.0 kHz
Frame rate : 46.875 FPS (1024 spf)
Compression mode : Lossy
Stream size : 32.5 MiB (9%)
Title : KANSAI
Language : Russian
Default : Yes
Forced : No
Audio #2
ID : 3
Format : AAC
Format/Info : Advanced Audio Codec
Format profile : LC
Codec ID : A_AAC
Duration : 24 min
Bit rate : 117 kb/s
Channel(s) : 2 channels
Channel positions : Front: L R
Sampling rate : 44.1 kHz
Frame rate : 43.066 FPS (1024 spf)
Compression mode : Lossy
Stream size : 20.1 MiB (5%)
Title : SHIZA Project
Language : Russian
Default : No
Forced : No
Audio #3
ID : 4
Format : AAC
Format/Info : Advanced Audio Codec
Format profile : LC
Codec ID : A_AAC
Duration : 24 min
Bit rate : 128 kb/s
Channel(s) : 2 channels
Channel positions : Front: L R
Sampling rate : 44.1 kHz
Frame rate : 43.066 FPS (1024 spf)
Compression mode : Lossy
Stream size : 22.0 MiB (6%)
Title : Original
Language : Japanese
Default : No
Forced : No
Text #1
ID : 5
Format : ASS
Codec ID : S_TEXT/ASS
Codec ID/Info : Advanced Sub Station Alpha
Duration : 21 min
Bit rate : 66 b/s
Count of elements : 146
Compression mode : Lossless
Stream size : 10.4 KiB (0%)
Title : Полные субтитры - Bazaar Zetsubou
Language : Russian
Default : Yes
Forced : No
Text #2
ID : 6
Format : ASS
Codec ID : S_TEXT/ASS
Codec ID/Info : Advanced Sub Station Alpha
Duration : 21 min
Bit rate : 53 b/s
Count of elements : 136
Compression mode : Lossless
Stream size : 8.34 KiB (0%)
Title : Полные субтитры - Sharatan & Octupus
Language : Russian
Default : No
Forced : No
Автор Bot
Категория Аниме
InfoHash D0E54B9CCC453B7CC0FEE1EACDE7C0F1F58DA58F
Файлы (24)
Показать файлы
Трекера
Показать трекера

    Нет комментариев

Войти на сайт

Статистика

  • Всего торрентов: 80439
  • Объёмом: 474.9 Тб
  • Сидов: 2162041
  • Личеров: 157668