Все раздачи Раздачи по тегам Правила Информация Контакты

24 часа (2000) DVD9

24 часа (2000) DVD9

Информация о фильме
Название: 24 часа
Год выхода: 2000
Жанр: Драма, криминал
Режиссер: Александр Атанесян
В ролях: Максим Суханов, Андрей Панин, Сергей Новиков, Михаил Козаков, Татьяна Самойлова, Игорь Старыгин, Георгий Тараторкин, Наталья Рогожкина, Владимир Еремин, Дмитрий Мухамадеев
О фильме :
Ослушавшись серьезного предупреждения, профессиональный киллер Феликс выполняет дорогостоящий заказ, поступивший к нему от «профсоюза киллеров». Некто, кого заказчик назвал «нефтянником», убит средь бела дня в многолюдном месте практически незаметно для окружающих. Сразу же после этого удачливому исполнителю приходится убедится, что предупреждение было слишком серьезным - «нефтянника» ему не простят...Всего 24 часа есть у Феликса, чтобы добраться до заветной цели - далекого теплого острова, где его ждут любимая женщина и деньги за выполненный заказ. Всего 24 часа дано Леве Шаламову и его брату Гарику, чтобы найти и убить Феликса...

Выпущено: Россия, НТВ-Профит
Продолжительность: 01:20:37
Язык: Русский
Субтитры: английские
Дополнительные материалы: Музыкальный клип, Рекламный ролик, Интервью, На съемочной площадке, Рассказ о съемках фильма
Файл
Меню: есть, статичное, озвученное
Тип релиза: DVD9
Контейнер: DVD-Video
Видео: PAL 4:3 (720x576(0.930)) MPEG Video, 25,000 кадр/сек, 9638 Кбит/сек
Аудио: Russian (Dolby AC-3, 2 ch) 192 Кбит/сек, 48.0 КГц
Аудио 2: Russian (Dolby AC-3, 2 ch) 192 Кбит/сек, 48.0 КГц, Комментарий
MediaInfo:

Общее
Полное имя : 24 hasa[torrents.ru]VIDEO_TSVTS_01_1.VOB
Формат : MPEG-PS
Размер файла : 1024 Мбайт
Продолжительность : 13 м. 59 с.
Режим общего битрейта : Переменный
Общий поток : 10,2 Мбит/сек
Видео
Идентификатор : 224 (0xE0)
Формат : MPEG Video
Версия формата : Version 2
Профиль формата : Main@Main
Параметр BVOP формата : Да
Параметр матрицы формата : По умолчанию
Параметр GOP формата : M=5, N=26
Структура изображения : Field
Продолжительность : 13 м. 59 с.
Вид битрейта : Переменный
Битрейт : 9638 Кбит/сек
Максимальный битрейт : 8700 Кбит/сек
Ширина : 720 пикселей
Высота : 576 пикселей
Соотношение сторон : 4:3
Частота кадров : 25,000 кадров/сек
Стандарт вещания : PAL
Цветовое пространство : YUV
Субдискретизация насыщенности : 4:2:0
Битовая глубина : 8 бит
Тип развёртки : Чересстрочная
Порядок развёртки : Верхнее поле первое
Метод сжатия : С потерями
Бит/(Пиксели*Кадры) : 0.930
Временной код первого кадра : 00:22:59:21
Оригинал временного кода : Group of pictures header
GOP, открыто/закрыто : Открыто
Размер потока : 965 Мбайт (94%)
Основные цвета : BT.601 PAL
Характеристики трансфера : BT.470 System B, BT.470 System G
Коэффициенты матрицы : BT.601
Аудио #1
Идентификатор : 189 (0xBD)-128 (0x80)
Формат : AC-3
Формат/Информация : Audio Coding 3
Параметр Endianness формата : Big
Режим смешивания : DVD-Video
Продолжительность : 13 м. 59 с.
Вид битрейта : Постоянный
Битрейт : 192 Кбит/сек
Каналы : 2 канала
Расположение каналов : Front: L R
Частота : 48,0 КГц
Частота кадров : 31,250 кадров/сек (1536 spf)
Битовая глубина : 16 бит
Метод сжатия : С потерями
Задержка видео : 16 мс.
Размер потока : 19,2 Мбайт (2%)
ServiceKind/String : Complete Main
Аудио #2
Идентификатор : 189 (0xBD)-129 (0x81)
Формат : AC-3
Формат/Информация : Audio Coding 3
Параметр Endianness формата : Big
Режим смешивания : DVD-Video
Продолжительность : 13 м. 59 с.
Вид битрейта : Постоянный
Битрейт : 192 Кбит/сек
Каналы : 2 канала
Расположение каналов : Front: L R
Частота : 48,0 КГц
Частота кадров : 31,250 кадров/сек (1536 spf)
Битовая глубина : 16 бит
Метод сжатия : С потерями
Задержка видео : 16 мс.
Размер потока : 19,2 Мбайт (2%)
ServiceKind/String : Complete Main
Текст
Идентификатор : 189 (0xBD)-32 (0x20)
Формат : RLE
Формат/Информация : Run-length encoding
Режим смешивания : DVD-Video

Скриншоты


Автор Bot
Категория Наши фильмы
InfoHash 91E40007902CC5CA83CFDB8C277FA15A15A1A7B4
Файлы (17)
Показать файлы
Трекера
Показать трекера
Похожие раздачи
Название Добавлен Размер Сид Лич
24 часа (2000) DVDRip-AVC 10/06/2018 746.5 Мб 52 0

    Нет комментариев

Войти на сайт

Статистика

  • Всего торрентов: 80505
  • Объёмом: 475.2 Тб
  • Сидов: 2134803
  • Личеров: 158681