Все раздачи Раздачи по тегам Правила Информация Контакты

Дочь (2012) WEB-DLRip-AVC

Дочь (2012) WEB-DLRip-AVC

Информация о фильме
Название: Дочь
Год выхода: 2012
Жанр: Драма, детектив
Режиссер: Александр Касаткин, Наталья Назарова
В ролях: Мария Смольникова, Яна Осипова, Игорь Мазепа, Владимир Мишуков, Олег Ткачёв, Кирилл Назаров, Анастасия Имамова, Евгений Ткачук, Мария Звонарёва, Алёна Кузнецова, Анна Пузан, Олеся Иванцова, Иван Щеглов
О фильме: Инна живет со своим папой и маленьким братом в небольшом провинциальном городе. Ее жизнь меняется, когда новая девочка — Маша приезжает в школу, в которой учится Инна. Между ними завязывается дружба. Но Маша становится жертвой серийного маньяка, который орудует в городке, убивая девочек 13-15 лет. Приехав на панихиду в церковь, Инна встречает сына священника — Илью, чья сестра тоже была убита.

Выпущено: Россия, Киностудия им. М. Горького, кинокомпания "Валдай"
Продолжительность: 01:45:55
Перевод: Не требуется
Файл
Кодек: х264
Качество: WEB-DLRip-AVC
Видео: MPEG-4 AVC, 1024x560, 25.000 fps, 3400 Кбит/с
Аудио: AC3, 6 ch, 384 Кбит/с
Субтитры: Нет
Навигация по главам: Есть
Релиз от:
Награды
Главный приз Общественного жюри газеты «Московский комсомолец» 10-го Московского фестиваля отечественного кино «Московская премьера» 2012 г.
На 28-м Международном Кинофестивале в Варшаве - приз ФИПРЕСИ.
Приз за лучший дебют на кинофестивале "СТАЛКЕР"
Лучший дебют "КИНОТАВР" 2012
Гранпри в Благовещенске на кинофестивале "Золотая осень"
Гранпри на кинофестивале "Спутник над Варшавой"
Приз FIPRESCI на международном фестивале в Таллине
Гранпри на международном фестивале "Лучезарный Ангел"
Приз за лучшую режиссуру и лучшую женскую роль на фестивале "Виват Россия!"
Скриншоты

MediaInfo
x264 [info]: frame I:887 Avg QP:17.20 size: 88542
x264 [info]: frame P:40648 Avg QP:19.08 size: 36945
x264 [info]: frame B:117341 Avg QP:20.75 size: 9547
=================================
Общее
Уникальный идентификатор : 228070583505511311143527379217957325551 (0xAB94CBEF55C74BD58C74304480810AEF)
Полное имя : Дочь.2012.WEB-DLRip-AVC.KORSAR.mkv
Формат : Matroska
Версия формата : Version 2
Размер файла : 2,80 Гбайт
Продолжительность : 1 ч. 45 м.
Общий поток : 3785 Кбит/сек
Дата кодирования : UTC 2017-01-29 04:17:54
Программа кодирования : mkvmerge v7.8.0 ('River Man') 32bit built on Apr 3 2015 12:11:22
Библиотека кодирования : libebml v1.3.1 + libmatroska v1.4.2
Видео
Идентификатор : 1
Формат : AVC
Формат/Информация : Advanced Video Codec
Профиль формата : High@L4.1
Параметр CABAC формата : Да
Параметр ReFrames формата : 12 кадров
Идентификатор кодека : V_MPEG4/ISO/AVC
Продолжительность : 1 ч. 45 м.
Битрейт : 3400 Кбит/сек
Ширина : 1024 пикселя
Высота : 560 пикселей
Соотношение сторон : 1,85:1
Режим частоты кадров : Постоянный
Частота кадров : 25,000 кадров/сек
Цветовое пространство : YUV
Субдискретизация насыщенности : 4:2:0
Битовая глубина : 8 бит
Тип развёртки : Прогрессивная
Бит/(Пиксели*Кадры) : 0.237
Размер потока : 2,46 Гбайт (88%)
Библиотека кодирования : x264 core 146 r2538 121396c
Настройки программы : cabac=1 / ref=12 / deblock=1:-2:-2 / analyse=0x3:0x113 / me=umh / subme=10 / psy=1 / psy_rd=1.00:0.07 / mixed_ref=1 / me_range=32 / chroma_me=1 / trellis=2 / 8x8dct=1 / cqm=0 / deadzone=21,11 / fast_pskip=0 / chroma_qp_offset=-3 / threads=3 / lookahead_threads=1 / sliced_threads=0 / nr=0 / decimate=0 / interlaced=0 / bluray_compat=0 / constrained_intra=0 / bframes=16 / b_pyramid=2 / b_adapt=2 / b_bias=0 / direct=3 / weightb=1 / open_gop=0 / weightp=2 / keyint=250 / keyint_min=25 / scenecut=40 / intra_refresh=0 / rc_lookahead=70 / rc=2pass / mbtree=1 / bitrate=3400 / ratetol=1.0 / qcomp=0.77 / qpmin=0 / qpmax=39 / qpstep=4 / cplxblur=20.0 / qblur=0.5 / ip_ratio=1.10 / aq=1:0.80
Язык : Russian
Default : Да
Forced : Нет
Цветовой диапазон : Limited
Основные цвета : BT.709
Характеристики трансфера : BT.709
Коэффициенты матрицы : BT.709
Аудио
Идентификатор : 2
Формат : AC-3
Формат/Информация : Audio Coding 3
Расширение режима : CM (complete main)
Параметр Endianness формата : Big
Идентификатор кодека : A_AC3
Продолжительность : 1 ч. 45 м.
Вид битрейта : Постоянный
Битрейт : 384 Кбит/сек
Каналы : 6 каналов
Расположение каналов : Front: L C R, Side: L R, LFE
Частота : 48,0 КГц
Частота кадров : 31,250 кадров/сек (1536 spf)
Битовая глубина : 16 бит
Метод сжатия : С потерями
Размер потока : 291 Мбайт (10%)
Язык : Russian
Default : Да
Forced : Нет
Меню
00:00:00.000 : en:Глава 1
00:09:28.000 : en:Глава 2
00:17:57.000 : en:Глава 3
00:27:10.000 : en:Глава 4
00:39:51.000 : en:Глава 5
00:48:28.000 : en:Глава 6
00:58:29.000 : en:Глава 7
01:09:01.000 : en:Глава 8
01:18:08.000 : en:Глава 9
01:26:47.000 : en:Глава 10
01:35:01.000 : en:Глава 11
01:43:14.000 : en:Глава 12
Автор Bot
Категория Наши фильмы
InfoHash 9AFD5A3D87238F6197B15D77655D507F4D9ED686
Файлы (1)
Показать файлы
Трекера
Показать трекера
Похожие раздачи
Название Добавлен Размер Сид Лич
Дочь (2012) HDTV 1080i 23/12/2017 4.9 Гб 9 0

    Нет комментариев

Войти на сайт

Статистика

  • Всего торрентов: 80505
  • Объёмом: 475.2 Тб
  • Сидов: 2134636
  • Личеров: 158521