Все раздачи Раздачи по тегам Правила Информация Контакты

Враги (2007) HDTVRip-AVC

Враги (2007) HDTVRip-AVC

Информация о фильме
Название: Враги
Год выхода: 2007
Жанр: Драма, военный
Режиссер: Мария Можар
В ролях: Юлия Ауг, Аксель Шрик, Елена Яцко, Геннадий Гарбук, Алеся Пуховая, Зинаида Зубкова, Иван Мацкевич, Денис Тарасенко, Олег Ткачёв, Андрей Гладкий, Вячеслав Павлють, Елена Валюшкина, Ольга Антропова, Виктор Васильев, Иван Латушко, Михаил Волчек
О фильме: 1942. Война ушла далеко на восток. Жизнь районного центра, где обосновалось немецкое руководство, входит в русло "нормы". Немцы учат русский язык, пытаются заигрывать с местными молодками. Женщины стирают немцам, кормят их, а кто-то и заводит с постояльцами отношения. Надо жить дальше... Подросток — сын главной героини — пытается убежать к партизанам, совершает подрыв немецкого эшелона, чтобы его в партизаны приняли. Мальчика ловят. Немцы должны его казнить, чтобы "другим неповадно было". Таков приказ, ослушаться нельзя. Немцы понимают, что казнь ребенка положит конец их спокойной жизни. Особенно хорошо понимает это местный комендант, который находится в близких отношениях с матерью мальчика. Но и нарушить приказ командования он не может.

Выпущено: Россия, Беларусь, Беларусфильм, Studio Rock
Продолжительность: 01:18:04
Перевод: Не требуется
Файл
Кодек: х264
Качество: HDTVRip-AVC
Видео: MPEG-4 AVC, 1024x434, 25.000 fps, 2750 Кбит/с
Аудио: AC3, 6 ch, 448 Кбит/с
Субтитры: Нет
Релиз от:
Награды
Фестиваль «Балтийские дебюты»: награда за лучшую женскую роль.
Фестиваль «Бригантина»: гран-при.
Продюсерский фестиваль«Кино-Ялта 2007»: специальное упоминание жюри.
VI Национальный фестиваль белорусских фильмов в Бресте: награда за лучшую мужскую роль; специальный приз в номинации «За лучший дебют в кино».
XIV Минский международный кинофестиваль «Лістапад-2007»: специальный диплом международного жюри «За верность традициям и стремление нового решения темы Великой Отечественной войны»; специальный приз «За лучший совместный белорусско-российский проект».
Скриншоты

MediaInfo
x264 [info]: frame I:489 Avg QP:17.94 size: 55792
x264 [info]: frame P:29580 Avg QP:19.80 size: 27505
x264 [info]: frame B:87035 Avg QP:21.47 size: 8841
===================================
Общее
Уникальный идентификатор : 237487742510559440901149067099028218397 (0xB2AA79B8928844D292484523A23A621D)
Полное имя : Враги.2007.HDTVRip-AVC.KORSAR.mkv
Формат : Matroska
Версия формата : Version 2
Размер файла : 1,75 Гбайт
Продолжительность : 1 ч. 18 м.
Общий поток : 3200 Кбит/сек
Дата кодирования : UTC 2017-02-15 05:35:39
Программа кодирования : mkvmerge v7.8.0 ('River Man') 32bit built on Apr 3 2015 12:11:22
Библиотека кодирования : libebml v1.3.1 + libmatroska v1.4.2
Видео
Идентификатор : 1
Формат : AVC
Формат/Информация : Advanced Video Codec
Профиль формата : High@L4.1
Параметр CABAC формата : Да
Параметр ReFrames формата : 12 кадров
Идентификатор кодека : V_MPEG4/ISO/AVC
Продолжительность : 1 ч. 18 м.
Битрейт : 2750 Кбит/сек
Ширина : 1024 пикселя
Высота : 434 пикселя
Соотношение сторон : 2,35:1
Режим частоты кадров : Постоянный
Частота кадров : 25,000 кадров/сек
Цветовое пространство : YUV
Субдискретизация насыщенности : 4:2:0
Битовая глубина : 8 бит
Тип развёртки : Прогрессивная
Бит/(Пиксели*Кадры) : 0.248
Размер потока : 1,47 Гбайт (84%)
Библиотека кодирования : x264 core 146 r2538 121396c
Настройки программы : cabac=1 / ref=12 / deblock=1:-2:-2 / analyse=0x3:0x133 / me=umh / subme=10 / psy=1 / psy_rd=1.05:0.12 / mixed_ref=1 / me_range=32 / chroma_me=1 / trellis=2 / 8x8dct=1 / cqm=0 / deadzone=21,11 / fast_pskip=0 / chroma_qp_offset=-3 / threads=3 / lookahead_threads=1 / sliced_threads=0 / nr=0 / decimate=0 / interlaced=0 / bluray_compat=0 / constrained_intra=0 / bframes=16 / b_pyramid=2 / b_adapt=2 / b_bias=0 / direct=3 / weightb=1 / open_gop=0 / weightp=2 / keyint=250 / keyint_min=25 / scenecut=40 / intra_refresh=0 / rc=2pass / mbtree=0 / bitrate=2750 / ratetol=1.0 / qcomp=0.63 / qpmin=0 / qpmax=39 / qpstep=4 / cplxblur=20.0 / qblur=0.5 / ip_ratio=1.10 / pb_ratio=1.30 / aq=2:1.00
Язык : Russian
Default : Да
Forced : Нет
Цветовой диапазон : Limited
Основные цвета : BT.601 PAL
Характеристики трансфера : BT.470 System B, BT.470 System G
Коэффициенты матрицы : BT.601
Аудио
Идентификатор : 2
Формат : AC-3
Формат/Информация : Audio Coding 3
Расширение режима : CM (complete main)
Параметр Endianness формата : Big
Идентификатор кодека : A_AC3
Продолжительность : 1 ч. 18 м.
Вид битрейта : Постоянный
Битрейт : 448 Кбит/сек
Каналы : 6 каналов
Расположение каналов : Front: L C R, Side: L R, LFE
Частота : 48,0 КГц
Частота кадров : 31,250 кадров/сек (1536 spf)
Битовая глубина : 16 бит
Метод сжатия : С потерями
Размер потока : 250 Мбайт (14%)
Язык : Russian
Default : Да
Forced : Нет
Автор Bot
Категория Наши фильмы
InfoHash FBEAEAF98B7778585B72DCC357A6DF0BB6813DB1
Файлы (1)
Показать файлы
Трекера
Показать трекера
Похожие раздачи
Название Добавлен Размер Сид Лич
Враги (2007) HDTVRip Portablius 16/06/2018 699.2 Мб 10 0
Враги (2007) HDTV 1080i 23/12/2017 4.8 Гб 6 0

    Нет комментариев

Войти на сайт

Статистика

  • Всего торрентов: 92712
  • Объёмом: 554.4 Тб
  • Сидов: 2942928
  • Личеров: 191592