Все раздачи Раздачи по тегам Правила Информация Контакты

Атлантида: Затерянный мир / Atlantis: The Lost Empire (2001) BDRip 720p | D, P, A

Атлантида: Затерянный мир / Atlantis: The Lost Empire (2001) BDRip 720p | D, P, A

Информация о фильме
Название: Атлантида: Затерянный мир
Оригинальное название: Atlantis: The Lost Empire
Год выхода: 2001
Жанр: мультфильм, фантастика, приключения, семейный
Режиссер: Гари Труздейл, Кирк Уайз
В ролях: Майкл Дж. Фокс, Кори Бертон, Джеймс Гарнер, Клаудия Кристиан, Джон Махони, Фил Моррис, Леонард Нимой, Дон Новелло, Жаклин Обрадорс, Флоренс Стэнли
О фильме:
Атлантида… Мечтою найти легендарный затонувший в пучинах океана остров грезили многие смельчаки. Но только юному картографу Майло Тэтчу повезло: в 1914 году в его руки попал таинственный дневник, указывающий путь к Затерянной империи. И вот уже самая могучая подводная лодка в мире под командованием неустрашимого капитана Рурка выходит в открытый океан.
Майло и его спутников ждет множество незабываемых приключений, превосходящих все похождения капитана Немо: схватка с морским чудовищем, древние загадки, буйство стихий, мистические силы и даже встреча с цивилизацией атлантов! И это лишь малая толика того, что ждет героев на их пути к тайнам великой Атлантиды.

Страна: США
Студия: Toon City Inc., Walt Disney Feature Animation, Walt Disney Pictures
Продолжительность: 01:35:43
Перевод: Профессиональный (дублированный) Blu-ray CEE + Профессиональный (многоголосый, закадровый) С.Р.И + Авторский (одноголосый, закадровый) С.Визгунов
Релиз:
Файл
Качество: BDRip 720p
Формат: Matroska
Видео: 1280x544 at 23.976 fps, x264@L4.1, ~5333 kbps
Аудио#1: Russian: 48 kHz, AC3, 3/2 (L,C,R,l,r) + LFE ch, ~640 kbps avg |Дубляж, Blu-ray CEE|
Аудио#2: Russian: 48 kHz, DTS, 3/2 (L,C,R,l,r) + LFE ch, ~1509 kbps avg |Многоголосый закадровый, С.Р.И|
Аудио#3: Russian: 48 kHz, DTS, 3/2 (L,C,R,l,r) + LFE ch, ~1509 kbps avg |Авторский, С.Визгунов|
Аудио#4: Ukrainian: 48 kHz, AC3, 2/0 (L,R) ch, ~192 kbps avg |Дубляж|
Аудио#5: English: 48 kHz, DTS, 3/2 (L,C,R,l,r) + LFE ch, ~1509 kbps avg
Субтитры: Russian (Forced), Russian, French, Hungarian, Portuguese, Spanish, Greek, English, English (SDH)
Знаете ли вы, что...
Жемчужины на браслете Киды меняют свой цвет на противоположный (розовые — на сиреневый и наоборот).
MI
Общее
Уникальный идентификатор : 172202346688588676971155575088351477613 (0x818CF73170679E5E86CE295F87E2FF6D)
Полное имя : Atlantis.The.Lost.Empire.2001.720p.BluRay.3xRus.Ukr.Eng.HDCLUB.mkv
Формат : Matroska
Версия формата : Version 2
Размер файла : 7,31 Гбайт
Продолжительность : 1 ч. 35 м.
Общий поток : 10,9 Мбит/сек
Название фильма : Atlantis: The Lost Empire (2001) - Release for HDCLUB
Дата кодирования : UTC 2014-04-28 19:23:48
Программа кодирования : mkvmerge v5.7.0 ('The Whirlwind') built on Jul 8 2012 20:08:51
Библиотека кодирования : libebml v1.2.3 + libmatroska v1.3.0
Видео
Идентификатор : 1
Формат : AVC
Формат/Информация : Advanced Video Codec
Профиль формата : High@L4.1
Параметр CABAC формата : Да
Параметр ReFrames формата : 12 кадров
Идентификатор кодека : V_MPEG4/ISO/AVC
Продолжительность : 1 ч. 35 м.
Битрейт : 5335 Кбит/сек
Ширина : 1280 пикселей
Высота : 544 пикселя
Соотношение сторон : 2,35:1
Режим частоты кадров : Постоянный
Частота кадров : 23,976 кадра/сек
Цветовое пространство : YUV
Субдискретизация насыщенности : 4:2:0
Битовая глубина : 8 бит
Тип развёртки : Прогрессивная
Бит/(Пиксели*Кадры) : 0.320
Размер потока : 3,57 Гбайт (49%)
Библиотека кодирования : x264 core 125 r2200 999b753
Настройки программы : cabac=1 / ref=12 / deblock=1:-3:-3 / analyse=0x3:0x133 / me=umh / subme=11 / psy=1 / psy_rd=1.05:0.00 / mixed_ref=1 / me_range=64 / chroma_me=1 / trellis=2 / 8x8dct=1 / cqm=0 / deadzone=21,11 / fast_pskip=0 / chroma_qp_offset=-2 / threads=12 / lookahead_threads=2 / sliced_threads=0 / nr=0 / decimate=1 / interlaced=0 / bluray_compat=0 / constrained_intra=0 / bframes=9 / b_pyramid=2 / b_adapt=2 / b_bias=0 / direct=3 / weightb=1 / open_gop=0 / weightp=2 / keyint=250 / keyint_min=23 / scenecut=40 / intra_refresh=0 / rc_lookahead=40 / rc=crf / mbtree=0 / crf=13.0 / qcomp=0.60 / qpmin=0 / qpmax=69 / qpstep=4 / vbv_maxrate=62500 / vbv_bufsize=78125 / crf_max=0.0 / nal_hrd=none / ip_ratio=1.40 / pb_ratio=1.30 / aq=1:0.80
Язык : English
Default : Да
Forced : Нет
Аудио #1
Идентификатор : 2
Формат : AC-3
Формат/Информация : Audio Coding 3
Расширение режима : CM (complete main)
Параметр Endianness формата : Big
Идентификатор кодека : A_AC3
Продолжительность : 1 ч. 35 м.
Вид битрейта : Постоянный
Битрейт : 640 Кбит/сек
Каналы : 6 каналов
Расположение каналов : Front: L C R, Side: L R, LFE
Частота : 48,0 КГц
Битовая глубина : 16 бит
Метод сжатия : С потерями
Размер потока : 439 Мбайт (6%)
Заголовок : |Дубляж, BluRay|
Язык : Russian
Default : Да
Forced : Нет
Аудио #2
Идентификатор : 3
Формат : DTS
Формат/Информация : Digital Theater Systems
Режим : 16
Параметр Endianness формата : Big
Идентификатор кодека : A_DTS
Продолжительность : 1 ч. 35 м.
Вид битрейта : Постоянный
Битрейт : 1509 Кбит/сек
Каналы : 6 каналов
Расположение каналов : Front: L C R, Side: L R, LFE
Частота : 48,0 КГц
Битовая глубина : 24 бит
Метод сжатия : С потерями
Размер потока : 1,01 Гбайт (14%)
Заголовок : |Многоголосый закадровый, С.Р.И|
Язык : Russian
Default : Нет
Forced : Нет
Аудио #3
Идентификатор : 4
Формат : DTS
Формат/Информация : Digital Theater Systems
Режим : 16
Параметр Endianness формата : Big
Идентификатор кодека : A_DTS
Продолжительность : 1 ч. 35 м.
Вид битрейта : Постоянный
Битрейт : 1509 Кбит/сек
Каналы : 6 каналов
Расположение каналов : Front: L C R, Side: L R, LFE
Частота : 48,0 КГц
Битовая глубина : 24 бит
Метод сжатия : С потерями
Размер потока : 1,01 Гбайт (14%)
Заголовок : |Одноголосый закадровый, С. Визгунов|
Язык : Russian
Default : Нет
Forced : Нет
Аудио #4
Идентификатор : 5
Формат : AC-3
Формат/Информация : Audio Coding 3
Расширение режима : CM (complete main)
Параметр Endianness формата : Big
Идентификатор кодека : A_AC3
Продолжительность : 1 ч. 35 м.
Вид битрейта : Постоянный
Битрейт : 192 Кбит/сек
Каналы : 2 канала
Расположение каналов : Front: L R
Частота : 48,0 КГц
Битовая глубина : 16 бит
Метод сжатия : С потерями
Размер потока : 132 Мбайт (2%)
Заголовок : |Дубляж|
Язык : Ukrainian
Default : Нет
Forced : Нет
Аудио #5
Идентификатор : 6
Формат : DTS
Формат/Информация : Digital Theater Systems
Режим : 16
Параметр Endianness формата : Big
Идентификатор кодека : A_DTS
Продолжительность : 1 ч. 35 м.
Вид битрейта : Постоянный
Битрейт : 1509 Кбит/сек
Каналы : 6 каналов
Расположение каналов : Front: L C R, Side: L R, LFE
Частота : 48,0 КГц
Битовая глубина : 24 бит
Метод сжатия : С потерями
Размер потока : 1,01 Гбайт (14%)
Язык : English
Default : Нет
Forced : Нет
Текст #1
Идентификатор : 7
Формат : UTF-8
Идентификатор кодека : S_TEXT/UTF8
Идентификатор кодека/Информация : UTF-8 Plain Text
Заголовок : Forced
Язык : Russian
Default : Да
Forced : Нет
Текст #2
Идентификатор : 8
Формат : UTF-8
Идентификатор кодека : S_TEXT/UTF8
Идентификатор кодека/Информация : UTF-8 Plain Text
Заголовок : Full
Язык : Russian
Default : Нет
Forced : Нет
Текст #3
Идентификатор : 9
Формат : UTF-8
Идентификатор кодека : S_TEXT/UTF8
Идентификатор кодека/Информация : UTF-8 Plain Text
Язык : French
Default : Нет
Forced : Нет
Текст #4
Идентификатор : 10
Формат : UTF-8
Идентификатор кодека : S_TEXT/UTF8
Идентификатор кодека/Информация : UTF-8 Plain Text
Язык : Hungarian
Default : Нет
Forced : Нет
Текст #5
Идентификатор : 11
Формат : UTF-8
Идентификатор кодека : S_TEXT/UTF8
Идентификатор кодека/Информация : UTF-8 Plain Text
Язык : Portuguese
Default : Нет
Forced : Нет
Текст #6
Идентификатор : 12
Формат : UTF-8
Идентификатор кодека : S_TEXT/UTF8
Идентификатор кодека/Информация : UTF-8 Plain Text
Язык : Spanish
Default : Нет
Forced : Нет
Текст #7
Идентификатор : 13
Формат : UTF-8
Идентификатор кодека : S_TEXT/UTF8
Идентификатор кодека/Информация : UTF-8 Plain Text
Язык : Greek
Default : Нет
Forced : Нет
Текст #8
Идентификатор : 14
Формат : UTF-8
Идентификатор кодека : S_TEXT/UTF8
Идентификатор кодека/Информация : UTF-8 Plain Text
Язык : English
Default : Нет
Forced : Нет
Текст #9
Идентификатор : 15
Формат : UTF-8
Идентификатор кодека : S_TEXT/UTF8
Идентификатор кодека/Информация : UTF-8 Plain Text
Заголовок : SDH
Язык : English
Default : Нет
Forced : Нет
Меню
00:00:00.000 : :00:00:00.000
00:02:30.817 : :00:02:30.817
00:07:55.100 : :00:07:55.100
00:13:42.530 : :00:13:42.530
00:18:47.126 : :00:18:47.126
00:26:25.125 : :00:26:25.125
00:31:32.808 : :00:31:32.808
00:36:16.716 : :00:36:16.716
00:40:53.284 : :00:40:53.284
00:46:56.230 : :00:46:56.230
00:53:53.355 : :00:53:53.355
00:59:41.119 : :00:59:41.119
01:06:22.228 : :01:06:22.228
01:09:40.176 : :01:09:40.176
01:13:09.343 : :01:13:09.343
01:19:43.779 : :01:19:43.779
01:25:10.772 : :01:25:10.772
01:28:02.569 : :01:28:02.569
01:29:27.028 : :01:29:27.028
Скриншоты

Автор Bot
Категория Мультипликация
InfoHash 4F788342E7EF5395A7F87CA69A54B1A4E9B720E4
Файлы (1)
Показать файлы
Трекера
Показать трекера
Похожие раздачи
Название Добавлен Размер Сид Лич
Атлантида: Затерянный мир / Atlantis: The Lost Empire (2001) HDRip-AVC | D 04/05/2018 747.3 Мб 20 0

    Нет комментариев

Войти на сайт

Статистика

  • Всего торрентов: 92089
  • Объёмом: 550.2 Тб
  • Сидов: 3003135
  • Личеров: 185569