Все раздачи Раздачи по тегам Правила Информация Контакты
Хоббит / The Hobbit (1977) WEB-DL 1080p | P, A

Название: Хоббит
Оригинальное название: The Hobbit
Год выпуска: 1977
Выпущено: США, ABC Video Enterprises, Rankin/Bass Productions, Topcraft
Жанр: Мультфильм, приключения, семейный, экранизация, полнометражный
Режиссер: Жуль Басс, Артур Ранкин
В ролях: Орсон Бин, Ричард Бун, Ганс Конрид, Джон Хьюстон, Отто Премингер, Сирил Ричард, Брава Теодор, Пол Фрис, Джек ДеЛеон, Дон Мессик
О фильме: В земляной норке жил-был в стародавние, точно не установленные времена хоббит. Так начинается знаменитая сказка английского писателя Дж. Р. Р. Толкина, создавшего удивительный мир, существовавший на Земле, "до того, как люди научились записывать свои мысли". Был он сказочным, манящим, страшноватым, угрюмым, тёмным. Жили в нем наряду с людьми и добрые существа: хоббиты, гномы, эльфы и злые: гобблины, тролли, драконы. Дракон по имени Смауг и похитил сокровища гномов. Хоббит же по имени Билбо Бэггинс (полурослик, превыше всего ценящий уют и тепло) волею судеб и волшебника Гэндальфа оказывается в отряде гномов. Путь их будет труден и опасен...
Продолжительность: 01:17:25
Перевод: Профессиональный многоголосый, авторский
Субтитры: Русские, английские, украинские
Навигация по главам: Есть
Файл
Качество: WEB-DL 1080p
Видео: MPEG-4 AVC, 13,6 Мбит/сек, 1920x1040 @ 1386x1040, 23,976 кадра/сек
Аудио #1: AC3, 1 ch, 128 Кбит/сек | Русский, профессиональный (многоголосый закадровый)
Аудио #2: AC3, 1 ch, 192 Кбит/сек | Русский, авторский (одноголосый закадровый) Юрий Сербин
Аудио #3: AC3, 1 ch, 192 Кбит/сек | Русский, авторский (одноголосый закадровый) Сергей Визгунов
Аудио #4: AC3, 1 ch, 224 Кбит/сек | Русский, авторский (одноголосый закадровый) Алексей Михалёв
Аудио #4: AC3, 1 ch, 224 Кбит/сек | Русский, авторский (одноголосый закадровый) Кашкин-Первомайский
Аудио #6: EAC3, 2 ch, 224 Кбит/сек | Английский, оригинал

Скриншоты

Инфо-файл
Общее
Уникальный идентификатор : 244992415216559303599070152428419768093 (0xB84FD2A70A4F3918BCD925D649735F1D)
Полное имя : Хоббит.1977.WEB-DL.1080p.mkv
Формат : Matroska
Версия формата : Version 2
Размер файла : 8,16 Гбайт
Продолжительность : 1 ч. 17 м.
Режим общего битрейта : Переменный
Общий поток : 15,1 Мбит/сек
Дата кодирования : UTC 2018-06-09 01:09:49
Программа кодирования : mkvmerge v5.8.0 ('No Sleep / Pillow') built on Sep 2 2012 15:37:04
Библиотека кодирования : libebml v1.2.3 + libmatroska v1.3.0
Видео
Идентификатор : 1
Формат : AVC
Формат/Информация : Advanced Video Codec
Профиль формата : High@L4
Настройки формата : CABAC / 4 Ref Frames
Параметр CABAC формата : Да
Параметр RefFrames формата : 4 кадра
Идентификатор кодека : V_MPEG4/ISO/AVC
Продолжительность : 1 ч. 17 м.
Вид битрейта : Переменный
Битрейт : 13,6 Мбит/сек
Максимальный битрейт : 15,0 Мбит/сек
Ширина : 1920 пикселей
Высота : 1040 пикселей
Соотношение сторон : 4:3
Соотношение сторон в оригинале : 1,85:1
Режим частоты кадров : Постоянный
Частота кадров : 23,976 (24000/1001) кадра/сек
Цветовое пространство : YUV
Субдискретизация насыщенности : 4:2:0
Битовая глубина : 8 бит
Тип развёртки : Прогрессивная
Бит/(Пиксели*Кадры) : 0.284
Размер потока : 7,36 Гбайт (90%)
Библиотека кодирования : x264 core 148 r2623 d5b2374
Настройки программы : cabac=1 / ref=4 / deblock=1:-1:-1 / analyse=0x3:0x133 / me=umh / subme=9 / psy=1 / psy_rd=1.00:0.15 / mixed_ref=1 / me_range=24 / chroma_me=1 / trellis=2 / 8x8dct=1 / cqm=0 / deadzone=21,11 / fast_pskip=1 / chroma_qp_offset=-3 / threads=32 / lookahead_threads=5 / sliced_threads=0 / nr=150 / decimate=1 / interlaced=0 / bluray_compat=0 / constrained_intra=0 / bframes=8 / b_pyramid=2 / b_adapt=2 / b_bias=0 / direct=3 / weightb=1 / open_gop=0 / weightp=2 / keyint=120 / keyint_min=61 / scenecut=0 / intra_refresh=0 / rc_lookahead=120 / rc=crf / mbtree=1 / crf=18.0 / qcomp=0.60 / qpmin=0 / qpmax=69 / qpstep=4 / vbv_maxrate=15000 / vbv_bufsize=31250 / crf_max=0.0 / nal_hrd=vbr / filler=0 / ip_ratio=1.40 / aq=3:1.00
Язык : English
Default : Да
Forced : Нет
Цветовой диапазон : Limited
Основные цвета : BT.709
Характеристики трансфера : BT.709
Коэффициенты матрицы : BT.709
Аудио #1
Идентификатор : 2
Формат : AC-3
Формат/Информация : Audio Coding 3
Идентификатор кодека : A_AC3
Продолжительность : 1 ч. 17 м.
Вид битрейта : Постоянный
Битрейт : 128 Кбит/сек
Каналы : 1 канал
Расположение каналов : Front: C
Частота : 48,0 КГц
Частота кадров : 31,250 кадров/сек (1536 SPF)
Битовая глубина : 16 бит
Метод сжатия : С потерями
Размер потока : 70,9 Мбайт (1%)
Заголовок : MVO
Язык : Russian
По умолчанию : Да
Принудительно : Нет
Аудио #2
Идентификатор : 3
Формат : AC-3
Формат/Информация : Audio Coding 3
Идентификатор кодека : A_AC3
Продолжительность : 1 ч. 17 м.
Вид битрейта : Постоянный
Битрейт : 192 Кбит/сек
Каналы : 1 канал
Расположение каналов : Front: C
Частота : 48,0 КГц
Частота кадров : 31,250 кадров/сек (1536 SPF)
Битовая глубина : 16 бит
Метод сжатия : С потерями
Размер потока : 106 Мбайт (1%)
Заголовок : AVO | Ю. Сербин
Язык : Russian
По умолчанию : Нет
Принудительно : Нет
Аудио #3
Идентификатор : 4
Формат : AC-3
Формат/Информация : Audio Coding 3
Идентификатор кодека : A_AC3
Продолжительность : 1 ч. 17 м.
Вид битрейта : Постоянный
Битрейт : 192 Кбит/сек
Каналы : 1 канал
Расположение каналов : Front: C
Частота : 48,0 КГц
Частота кадров : 31,250 кадров/сек (1536 SPF)
Битовая глубина : 16 бит
Метод сжатия : С потерями
Размер потока : 106 Мбайт (1%)
Заголовок : AVO | С. Визгунов
Язык : Russian
По умолчанию : Нет
Принудительно : Нет
Аудио #4
Идентификатор : 5
Формат : AC-3
Формат/Информация : Audio Coding 3
Идентификатор кодека : A_AC3
Продолжительность : 1 ч. 17 м.
Вид битрейта : Постоянный
Битрейт : 224 Кбит/сек
Каналы : 1 канал
Расположение каналов : Front: C
Частота : 48,0 КГц
Частота кадров : 31,250 кадров/сек (1536 SPF)
Битовая глубина : 16 бит
Метод сжатия : С потерями
Размер потока : 124 Мбайт (1%)
Заголовок : AVO | А. Михалёв
Язык : Russian
По умолчанию : Нет
Принудительно : Нет
Аудио #5
Идентификатор : 6
Формат : AC-3
Формат/Информация : Audio Coding 3
Идентификатор кодека : A_AC3
Продолжительность : 1 ч. 17 м.
Вид битрейта : Постоянный
Битрейт : 224 Кбит/сек
Каналы : 1 канал
Расположение каналов : Front: C
Частота : 48,0 КГц
Частота кадров : 31,250 кадров/сек (1536 SPF)
Битовая глубина : 16 бит
Метод сжатия : С потерями
Размер потока : 124 Мбайт (1%)
Заголовок : AVO | Кашкин-Первомайский
Язык : Russian
По умолчанию : Нет
Принудительно : Нет
Аудио #6
Идентификатор : 7
Формат : E-AC-3
Формат/Информация : Enhanced Audio Coding 3
Идентификатор кодека : A_EAC3
Продолжительность : 1 ч. 17 м.
Вид битрейта : Постоянный
Битрейт : 224 Кбит/сек
Каналы : 2 канала
Расположение каналов : Front: L R
Частота : 48,0 КГц
Частота кадров : 187,500 кадров/сек (256 SPF)
Метод сжатия : С потерями
Размер потока : 124 Мбайт (1%)
Заголовок : Original
Язык : English
По умолчанию : Нет
Принудительно : Нет
Текст #1
Идентификатор : 8
Формат : UTF-8
Идентификатор кодека : S_TEXT/UTF8
Идентификатор кодека/Информация : UTF-8 Plain Text
Язык : Russian
По умолчанию : Нет
Принудительно : Нет
Текст #2
Идентификатор : 9
Формат : UTF-8
Идентификатор кодека : S_TEXT/UTF8
Идентификатор кодека/Информация : UTF-8 Plain Text
Заголовок : 1
Язык : English
По умолчанию : Нет
Принудительно : Нет
Текст #3
Идентификатор : 10
Формат : UTF-8
Идентификатор кодека : S_TEXT/UTF8
Идентификатор кодека/Информация : UTF-8 Plain Text
Заголовок : 2
Язык : English
По умолчанию : Нет
Принудительно : Нет
Текст #4
Идентификатор : 11
Формат : UTF-8
Идентификатор кодека : S_TEXT/UTF8
Идентификатор кодека/Информация : UTF-8 Plain Text
Заголовок : SDH
Язык : English
По умолчанию : Нет
Принудительно : Нет
Текст #5
Идентификатор : 12
Формат : UTF-8
Идентификатор кодека : S_TEXT/UTF8
Идентификатор кодека/Информация : UTF-8 Plain Text
Язык : Ukrainian
По умолчанию : Нет
Принудительно : Нет
Меню
00:00:00.000 : en:Gandalf Wishes to Hire Bilbo
00:02:31.000 : en:The Dwarves Eat Supper
00:03:37.000 : en:Bilbo Is Told of the Adventure
00:08:06.000 : en:Bilbo Leaves on a Journey,Opening Credits
00:10:19.000 : en:Bilbo's Journey Begins
00:11:54.000 : en:Bilbo Encounters a Troll
00:12:59.000 : en:Gandalf Helps the Dwarves
00:14:10.000 : en:The Dwarves Find Treasure
00:15:23.000 : en:Gandalf Gives Thorin a Gift
00:17:06.000 : en:The Dwarves Arrive at Rivendell
00:18:13.000 : en:Elrond Helps with Information
00:19:41.000 : en:The Dwarves Find Shelter
00:21:51.000 : en:The Dwarves Encounter the Goblin King
00:23:39.000 : en:Bilbo Meets Gollum
00:30:47.000 : en:Gollum Misplaces the Ring
00:34:29.000 : en:Bilbo Finds the Dwarves
00:38:30.000 : en:Gandalf Leaves the Others
00:40:05.000 : en:Bilbo Begins to Write of His Travels
00:42:24.000 : en:Bilbo Battles the Spider
00:43:43.000 : en:Bilbo Springs to Action
00:45:43.000 : en:Bilbo Joins the Others
00:49:06.000 : en:Bard Helps the Dwarves, Discovery
00:52:51.000 : en:Bilbo Ventures On Alone
01:00:41.000 : en:Bilbo Returns to the Group
01:01:36.000 : en:Smaug Attacks the Group
01:04:42.000 : en:Bilbo and the Others Celebrate
01:07:47.000 : en:The Armies Prepare for Battle
01:09:34.000 : en:Gandalf Returns
01:12:28.000 : en:Bilbo Says His Farewells
01:14:33.000 : en:Bilbo Returns Home
01:16:25.000 : en:End Credits

Дополнительная информация
• Исходник видео WEB-DL Amazon.

Сборка:
Автор Bot
Категория Мультипликация
InfoHash 563B0D342AE4F47DFCBCDA043C5556EEE7A1233A
Файлы (1)
Показать файлы
Трекера
Показать трекера

    Нет комментариев

Войти на сайт

Статистика

  • Всего торрентов: 92089
  • Объёмом: 550.2 Тб
  • Сидов: 3003148
  • Личеров: 185571