Все раздачи Раздачи по тегам Правила Информация Контакты

Третье небо (2007) DVDRip-AVC

Третье небо (2007) DVDRip-AVC

Информация о фильме
Название: Третье небо
Год выхода: 2007
Жанр: Драма
Режиссер: Эльёр Ишмухамедов
В ролях: Тамара Акулова, Регимантас Адомайтис, Вячеслав Павлють, Августин Милованов, Никита Степанов, Юлия Кадушкевич, Шавкат Абдусаламов, Елена Владомирская-Пастревич, Екатерина Купченко
О фильме: Судьба сводит в аэропорту пятерых пассажиров. Они все летят на одном рейсе, но рейс задерживается. У каждого есть причина спешить. Выделенный для них почтовый самолет терпит катастрофу и падает в заброшенный карьер. Люди понемногу приходят в себя и хотят вернуться к нормальной жизни. Но им это не удается, с ними начинают происходить странные вещи.

Выпущено: Россия, продюсерский центр "Пирамида"
Продолжительность: 01:40:04
Перевод: Не требуется
Файл
Кодек: х264
Качество: DVDRip-AVC
Видео: MPEG-4 AVC, 714x458@762x458, 25.000 fps, 2100 Кбит/с
Аудио: AC3, 6 ch, 448 Кбит/с
Субтитры: Нет
Релиз от:
Скриншоты

MediaInfo
x264 [info]: frame I:808 Avg QP:16.12 size: 54028
x264 [info]: frame P:36485 Avg QP:17.68 size: 24395
x264 [info]: frame B:112828 Avg QP:19.56 size: 5695
=====================================
Общее
Уникальный идентификатор : 179488573155731575119105577249994480931 (0x87083DE4BE4AF6C1B1D86AE15E249D23)
Полное имя : Третье небо.2007.DVDRip-AVC.KORSAR.mkv
Формат : Matroska
Версия формата : Version 2
Размер файла : 1,78 Гбайт
Продолжительность : 1 ч. 40 м.
Общий поток : 2550 Кбит/сек
Дата кодирования : UTC 2017-03-20 12:34:18
Программа кодирования : mkvmerge v7.8.0 ('River Man') 32bit built on Apr 3 2015 12:11:22
Библиотека кодирования : libebml v1.3.1 + libmatroska v1.4.2
Видео
Идентификатор : 1
Формат : AVC
Формат/Информация : Advanced Video Codec
Профиль формата : High@L4.1
Параметр CABAC формата : Да
Параметр ReFrames формата : 12 кадров
Идентификатор кодека : V_MPEG4/ISO/AVC
Продолжительность : 1 ч. 40 м.
Битрейт : 2100 Кбит/сек
Ширина : 714 пикселей
Высота : 458 пикселей
Соотношение сторон : 5:3
Соотношение сторон в оригинале : 5:3
Режим частоты кадров : Постоянный
Частота кадров : 25,000 кадров/сек
Цветовое пространство : YUV
Субдискретизация насыщенности : 4:2:0
Битовая глубина : 8 бит
Тип развёртки : Прогрессивная
Бит/(Пиксели*Кадры) : 0.257
Размер потока : 1,43 Гбайт (80%)
Библиотека кодирования : x264 core 146 r2538 121396c
Настройки программы : cabac=1 / ref=12 / deblock=1:-2:-2 / analyse=0x3:0x133 / me=umh / subme=10 / psy=1 / psy_rd=1.05:0.08 / mixed_ref=1 / me_range=32 / chroma_me=1 / trellis=2 / 8x8dct=1 / cqm=0 / deadzone=21,11 / fast_pskip=0 / chroma_qp_offset=-3 / threads=3 / lookahead_threads=1 / sliced_threads=0 / nr=0 / decimate=0 / interlaced=0 / bluray_compat=0 / constrained_intra=0 / bframes=16 / b_pyramid=2 / b_adapt=2 / b_bias=0 / direct=3 / weightb=1 / open_gop=0 / weightp=2 / keyint=250 / keyint_min=25 / scenecut=40 / intra_refresh=0 / rc=2pass / mbtree=0 / bitrate=2100 / ratetol=1.0 / qcomp=0.63 / qpmin=0 / qpmax=39 / qpstep=4 / cplxblur=20.0 / qblur=0.5 / ip_ratio=1.10 / pb_ratio=1.30 / aq=1:1.00
Язык : Russian
Default : Да
Forced : Нет
Цветовой диапазон : Limited
Основные цвета : BT.601 PAL
Характеристики трансфера : BT.470 System B, BT.470 System G
Коэффициенты матрицы : BT.601
Аудио
Идентификатор : 2
Формат : AC-3
Формат/Информация : Audio Coding 3
Расширение режима : CM (complete main)
Параметр Endianness формата : Big
Идентификатор кодека : A_AC3
Продолжительность : 1 ч. 40 м.
Вид битрейта : Постоянный
Битрейт : 448 Кбит/сек
Каналы : 6 каналов
Расположение каналов : Front: L C R, Side: L R, LFE
Частота : 48,0 КГц
Частота кадров : 31,250 кадров/сек (1536 spf)
Битовая глубина : 16 бит
Метод сжатия : С потерями
Размер потока : 321 Мбайт (18%)
Язык : Russian
Default : Да
Forced : Нет
Автор Bot
Категория Наши фильмы
InfoHash 7BEECE8DDFF33E508F93F348811CFE69FDD4619B
Файлы (1)
Показать файлы
Трекера
Показать трекера

    Нет комментариев

Войти на сайт

Статистика

  • Всего торрентов: 92228
  • Объёмом: 551.7 Тб
  • Сидов: 2981094
  • Личеров: 184128