Все раздачи Раздачи по тегам Правила Информация Контакты

Простоквашино [01x01-03 из 30] (2018) WEB-DLRip-AVC

Простоквашино [01x01-03 из 30] (2018) WEB-DLRip-AVC

Простоквашино
Эпизоды с 1 по 3 (из 30)

Год выпуска: 2018
Страна: Россия
Производство: "Киностудия "Союзмультфильм"
Жанр: Мультфильм, семейный
Режиссёр: Михаил Солошенко
Роли озвучивают: : Антон Табаков, Юлия Меньшова, Иван Охлобыстин, Гарик Сукачёв, Алексей Онежен
Перевод: Не требуется
Субтитры: Нет
Реклама: Отсутствует
Описание: Казалось, никакие бури внешнего мира не смогут поколебать привычный и размеренный ход деревенской жизни Простоквашино. Время как будто застыло. Все так же каждое утро Матроскин дегустирует свежее молоко, полученное от своей любимицы — коровы Мурки. Все так же Шарик проводит время в окрестных лесах, «фотоохотясь» на редкую дичь. Правда, теперь он научился выкладывать фотографии своей добычи в интернет. И все так же, при каждой возможности, их навещает Дядя Федор. И тогда они весело и дружно проводят время своей мужской компанией. И когда им уже стало казаться, что так будет всегда, внезапно все изменилось с появлением одной маленькой девочки, родной сестры Дяди Фёдора. И имя этой девочки — Вера Павловна.

Качество: WEB-DLRip-AVC
Продолжительность: по ~ 00:07:00
Формат: MKV
Видео кодек: MPEG-4 AVC
Аудио кодек: AC3
Видео: 1024x576 (16:9), 25,000 fps, x264 ~2000 kbps avg, 0.136 bit/pixel
Аудио: 48 kHz, Audio Coding 3, 2.0 Front: L R, ~192 kbps avg | RUS

Релиз от: Rip by:
MediaInfo

Общее
Уникальный идентификатор : 197565857062315303867345662613484400429 (0x94A1CCCD7CB1E1BAB3E07AAABAEAEF2D)
Полное имя : D:ВидеоВозвращение в Простоквашино.2018.WEB-DLRip(AVC).OlLanDGroupВозвращение в Простоквашино.seriya 01.2018.WEB-DLRip(AVC).OlLanDGroup.mkv
Формат : Matroska
Версия формата : Version 2
Размер файла : 102 Мбайт
Продолжительность : 6 м. 30 с.
Общий поток : 2192 Кбит/сек
Дата кодирования : UTC 2018-04-03 12:52:28
Программа кодирования : mkvmerge v7.8.0 ('River Man') 32bit built on Apr 3 2015 12:11:22
Библиотека кодирования : libebml v1.3.1 + libmatroska v1.4.2
Видео
Идентификатор : 1
Формат : AVC
Формат/Информация : Advanced Video Codec
Профиль формата : High@L4.1
Параметр CABAC формата : Да
Параметр ReFrames формата : 10 кадров
Идентификатор кодека : V_MPEG4/ISO/AVC
Продолжительность : 6 м. 30 с.
Битрейт : 2000 Кбит/сек
Ширина : 1024 пикселя
Высота : 576 пикселей
Соотношение сторон : 16:9
Режим частоты кадров : Постоянный
Частота кадров : 25,000 кадров/сек
Цветовое пространство : YUV
Субдискретизация насыщенности : 4:2:0
Битовая глубина : 8 бит
Тип развёртки : Прогрессивная
Бит/(Пиксели*Кадры) : 0.136
Размер потока : 91,0 Мбайт (89%)
Библиотека кодирования : x264 core 146 r2538 121396c
Настройки программы : cabac=1 / ref=10 / deblock=1:-3:-3 / analyse=0x3:0x133 / me=umh / subme=11 / psy=1 / psy_rd=1.00:0.00 / mixed_ref=1 / me_range=32 / chroma_me=1 / trellis=2 / 8x8dct=1 / cqm=0 / deadzone=21,11 / fast_pskip=0 / chroma_qp_offset=-2 / threads=6 / lookahead_threads=1 / sliced_threads=0 / nr=0 / decimate=0 / interlaced=0 / bluray_compat=0 / constrained_intra=0 / bframes=10 / b_pyramid=2 / b_adapt=1 / b_bias=0 / direct=3 / weightb=1 / open_gop=0 / weightp=2 / keyint=250 / keyint_min=25 / scenecut=40 / intra_refresh=0 / rc_lookahead=40 / rc=2pass / mbtree=0 / bitrate=2000 / ratetol=1.0 / qcomp=0.60 / qpmin=0 / qpmax=69 / qpstep=4 / cplxblur=20.0 / qblur=0.5 / vbv_maxrate=50000 / vbv_bufsize=62500 / nal_hrd=none / filler=0 / ip_ratio=1.40 / pb_ratio=1.30 / aq=1:1.00
Default : Да
Forced : Нет
Аудио
Идентификатор : 2
Формат : AC-3
Формат/Информация : Audio Coding 3
Расширение режима : CM (complete main)
Параметр Endianness формата : Big
Идентификатор кодека : A_AC3
Продолжительность : 6 м. 30 с.
Вид битрейта : Постоянный
Битрейт : 192 Кбит/сек
Каналы : 2 канала
Расположение каналов : Front: L R
Частота : 48,0 КГц
Битовая глубина : 16 бит
Метод сжатия : С потерями
Размер потока : 8,93 Мбайт (9%)
Default : Да
Forced : Нет

Автор Bot
Категория Мультипликация
InfoHash 8E3847F4418AAE0FE29717D3A06BD79B9F9E8C1B
Файлы (3)
Показать файлы
Трекера
Показать трекера
Похожие раздачи

    Нет комментариев

Войти на сайт

Статистика

  • Всего торрентов: 92089
  • Объёмом: 550.2 Тб
  • Сидов: 3003075
  • Личеров: 185571