Все раздачи Раздачи по тегам Правила Информация Контакты

Стальная тревога! Незримая победа / Full Metal Panic! Invisible Victory [01-08 из 12] (2018) HDTVRip 720p | AniLibria, Onibaku

Стальная тревога! Незримая победа / Full Metal Panic! Invisible Victory [01-08 из 12] (2018) HDTVRip 720p | AniLibria, Onibaku

Информация о фильме
Название: Стальная тревога! Незримая победа
Оригинальное название: Full Metal Panic! Invisible Victory
Год выхода: 2018
Жанр: приключения, фантастика, меха
Режиссер: Накаяма Кацуити
Художник: Киносита Рёка, Амада Тосиаки
В ролях: Сэки Томокадзу, Юкино Сацуки, Кимура Икуэ, Морикава Тосиюки, Нацуки Рио, Ногами Юкана, Мики Синъитиро, Нэя Митико, Оцука Акио, Нисимура Томомити, Намикава Дайсукэ, Ямадзи Кадзухиро, Сугита Томокадзу, Утида Ая, Кисино Кадзухико, Кояма Рикия
О фильме:
Частная военная организация «Мифрил» стремится устранить мировой терроризм и остальные угрозы мирной жизни на Земле. Организации помогают «виспарды» — люди со сверхъестественными способностями.
Соскэ Сагара солдат, работающий на «Мифрил». Он получил миссию по защите Канамэ Чидори. Девушка одна из «виспардов». Однако всё не так просто, ведь Соскэ совершенно не знаком с жизнью обычного школьника, ибо с детства принимал участие в военных действиях. И кто знает, что для него будет сложнее — выполнение своего задания или жизнь обычного человека?
Прямое продолжение основного сюжета сериала.

World Art | MAL
Страна: Япония
Студия: Xebec
Продолжительность: 00:24:30
Язык: Русский, Японский
Перевод: Любительский (многоголосый, закадровый), Любительский (двухголосый, закадровый)
Файл
Качество: HDTVRip
Формат: MKV
Кодек: H.264
Аудио кодек: AAC
Видео: 1280x720, 23.976 fps, 1600 kbps
Аудио RUS: 48.0 kHz, AAC, 2 ch, 192 kbps - AniLibria
Аудио RUS: 48.0 kHz, AAC, 2 ch, 192 kbps - Onibaku (01-07)
Аудио JAP: 48.0 kHz, AAC, 2 ch, 192 kbps
Субтитры: русские (встроенные надписи, ASS)
Субтитры: русские (встроенные полный перевод, ASS) - shika2009 & Sivarius & Akira
Субтитры: русские (встроенные полный перевод, ASS) - 2nd Division
Субтитры: русские (встроенные полный перевод, ASS) - LazyFox & Костин Тимофей
Озвучка
Релиз от:
Озвучивание: Cleo-chan, Hekomi, WhiteCrow, Gomer
Тайминг и работа со звуком: Hidan
Релиз от:
Озвучивание: Eladiel, Absurd
Тайминг и работа со звуком: Absurd
Скриншоты

Список серий
01. Час Зеро
02. Контроль Повреждений
03. Решающий процент
04. Моё решение
05. Добро пожаловать в джунгли
06. Гнилой покой
07. Смерть сильнейших
08. Пылающий дух одиночки
MediaInfo
General
Format : Matroska
Format version : Version 4 / Version 2
File size : 375 MiB
Duration : 24 min
Overall bit rate : 2 139 kb/s
Encoded date : UTC 2018-04-29 05:11:07
Writing application : mkvmerge v8.3.0 ('Over the Horizon') 64bit
Writing library : libebml v1.3.1 + libmatroska v1.4.2
Video
ID : 1
Format : AVC
Format/Info : Advanced Video Codec
Format profile : Main@L4.1
Format settings, CABAC : Yes
Format settings, ReFrames : 4 frames
Codec ID : V_MPEG4/ISO/AVC
Duration : 24 min
Bit rate : 1 564 kb/s
Width : 1 280 pixels
Height : 720 pixels
Display aspect ratio : 16:9
Frame rate mode : Constant
Frame rate : 23.976 (24000/1001) FPS
Color space : YUV
Chroma subsampling : 4:2:0
Bit depth : 8 bits
Scan type : Progressive
Bits/(Pixel*Frame) : 0.071
Stream size : 274 MiB (73%)
Writing library : x264 core 155 r2867+82 a249126 t_mod_Custom_2 [8-bit@all X86_64]
Encoding settings : cabac=1 / ref=3 / deblock=1:0:0 / analyse=0x1:0x111 / me=hex / subme=7 / psy=1 / fade_compensate=0.00 / psy_rd=1.00:0.00 / mixed_ref=1 / me_range=16 / chroma_me=1 / trellis=1 / 8x8dct=0 / cqm=0 / deadzone=21,11 / fast_pskip=1 / chroma_qp_offset=-2 / threads=18 / lookahead_threads=3 / sliced_threads=0 / nr=0 / decimate=1 / interlaced=0 / bluray_compat=0 / constrained_intra=0 / fgo=0 / bframes=3 / b_pyramid=2 / b_adapt=1 / b_bias=0 / direct=1 / weightb=1 / open_gop=0 / weightp=2 / keyint=240 / keyint_min=1 / scenecut=40 / intra_refresh=0 / rc_lookahead=40 / rc=crf / mbtree=1 / crf=20.0000 / qcomp=0.60 / qpmin=0:0:0 / qpmax=69:69:69 / qpstep=4 / ip_ratio=1.40 / aq=1:1.50 / aq-sensitivity=10.00 / aq-factor=1.00:1.00:1.00 / aq2=0 / aq3=0
Language : Japanese
Default : Yes
Forced : No
Color range : Limited
Color primaries : BT.709
Transfer characteristics : BT.709
Matrix coefficients : BT.709
Audio #1
ID : 2
Format : AAC
Format/Info : Advanced Audio Codec
Format profile : LC
Codec ID : A_AAC
Duration : 24 min
Bit rate : 192 kb/s
Channel(s) : 2 channels
Channel positions : Front: L R
Sampling rate : 48.0 kHz
Frame rate : 46.875 FPS (1024 spf)
Compression mode : Lossy
Stream size : 33.7 MiB (9%)
Title : AniLibria
Language : Russian
Default : Yes
Forced : No
Audio #2
ID : 3
Format : AAC
Format/Info : Advanced Audio Codec
Format profile : LC
Codec ID : A_AAC
Duration : 24 min
Bit rate : 192 kb/s
Channel(s) : 2 channels
Channel positions : Front: L R
Sampling rate : 48.0 kHz
Frame rate : 46.875 FPS (1024 spf)
Compression mode : Lossy
Stream size : 33.2 MiB (9%)
Title : Eladiel & Absurd
Language : Russian
Default : No
Forced : No
Audio #3
ID : 4
Format : AAC
Format/Info : Advanced Audio Codec
Format profile : LC
Codec ID : A_AAC
Duration : 24 min
Bit rate : 192 kb/s
Channel(s) : 2 channels
Channel positions : Front: L R
Sampling rate : 48.0 kHz
Frame rate : 46.875 FPS (1024 spf)
Compression mode : Lossy
Stream size : 33.0 MiB (9%)
Title : Original
Language : Japanese
Default : No
Forced : No
Text #1
ID : 5
Format : ASS
Codec ID : S_TEXT/ASS
Codec ID/Info : Advanced Sub Station Alpha
Duration : 24 min
Bit rate : 20 b/s
Count of elements : 34
Compression mode : Lossless
Stream size : 3.72 KiB (0%)
Title : Надписи
Language : Russian
Default : Yes
Forced : No
Text #2
ID : 6
Format : ASS
Codec ID : S_TEXT/ASS
Codec ID/Info : Advanced Sub Station Alpha
Duration : 24 min
Bit rate : 212 b/s
Count of elements : 466
Compression mode : Lossless
Stream size : 37.9 KiB (0%)
Title : Полные субттры - shika2009 & Sivarius & Akira
Language : Russian
Default : No
Forced : No
Text #3
ID : 7
Format : ASS
Codec ID : S_TEXT/ASS
Codec ID/Info : Advanced Sub Station Alpha
Duration : 24 min
Bit rate : 202 b/s
Count of elements : 453
Compression mode : Lossless
Stream size : 36.1 KiB (0%)
Title : Полные субттры - 2nd Division
Language : Russian
Default : No
Forced : No
Text #4
ID : 8
Format : ASS
Codec ID : S_TEXT/ASS
Codec ID/Info : Advanced Sub Station Alpha
Duration : 24 min
Bit rate : 178 b/s
Count of elements : 435
Compression mode : Lossless
Stream size : 31.8 KiB (0%)
Title : Полные субттры - LazyFox & Костин Тимофей
Language : Russian
Default : No
Forced : No
Раздача ведется путем добавления новых серий
Когда раздача ведётся путём добавления новых серий, при каждом добавлении создётся новый торрент. Чтобы начать докачку новой серии, пользователям необходимо сделать следующее:
(1) остановить скачивание,
(2) удалить старый торрент у себя из клиента (старые серии удалять не надо),
(3) скачать новый торрент и запустить его у себя в клиенте вместо старого, при этом указать клиенту путь в старую папку, куда и должно происходить скачивание новых серий.
Ваш клиент при этом должен произвести хеширование (проверку) старой папки (если не производит сам - помогите ему сделать это), и будет докачивать только те серии, которых у вас ещё нет. Старые серии при этом не удаляются, а продолжают раздаваться!
Eсли вы уже удалили старые серии, то предотвратить повторную закачку старых серий можно, отжав галочку в соответсвующих местах при запуске нового торрента. По возможности, желательно не удалять старые серии как можно дольше, чтобы релизёр не столько продолжал раздавать старые серии, а смог сконцентрироваться на новых.
Автор Bot
Категория Аниме
InfoHash 40654FEDC3AACAB7CACCE4A4C1072DD8B14CA439
Файлы (8)
Показать файлы
Трекера
Показать трекера
Похожие раздачи

    Нет комментариев

Войти на сайт

Статистика

  • Всего торрентов: 80775
  • Объёмом: 476.9 Тб
  • Сидов: 2228133
  • Личеров: 167541