Все раздачи Раздачи по тегам Правила Информация Контакты

Гражданская война / The Civil War [01х01-03 из 09] (1990) HDTVRip 720р | RusFilm

Гражданская война / The Civil War [01х01-03 из 09] (1990) HDTVRip 720р | RusFilm

Название: Гражданская война
Оригинальное название: The Civil War
Год выпуска: 1990
Жанр: Документальный, история, военный
Выпущено: США
Режиссер: Кен Бёрнс
В ролях:
Сэм Уотерстон, Джули Харрис, Джейсон Робардс, Морган Фриман, Пол Роублинг, Гаррисон Кейллор, Джордж Блэк, Дэвид МакКалло, Артур Миллер, Кристофер Мёрни
Описание сериала:
Документальный многосерийный фильм Кена Бернса оживляет на экране самый кровавый, разрушительный и самый важный конфликт Америки. «Гражданская война» - это сага о знаменитых генералах и обычных солдатах, повесть о борьбе за свободу и единство американской нации, рассказ о великом президенте и стране, которой пришлось разорвать себя на две части, чтобы стать единой.


Продолжительность: ~ 01:30:00
Перевод: Любительский многоголосый (RusFilm)
[b]Реклама:
Присутствует
Файл
Формат: MKV
Качество: HDTVRip (720p)
Видео: MPEG-4 AVC, ~ 2500 Кбит/с, 1028x720
Аудио: 48 kHz, AC3 Dolby Digital, 2/0 (L,R) ch, ~192 kbps rus
MediaInfo

Format : Matroska
Format version : Version 2
File size : 1.58 GiB
Duration : 1 h 39 min
Overall bit rate : 2 271 kb/s
Writing application : libmatroska 1.4.1
Writing library : SolveigMM Matroska Muxer Version 1.0.1502.18
Video
ID : 1
Format : AVC
Format/Info : Advanced Video Codec
Format profile : Main@L3.1
Format settings : CABAC / 4 Ref Frames
Format settings, CABAC : Yes
Format settings, ReFrames : 4 frames
Codec ID : V_MPEG4/ISO/AVC
Duration : 1 h 39 min
Bit rate : 2 034 kb/s
Width : 1 028 pixels
Height : 720 pixels
Display aspect ratio : 16:9
Frame rate mode : Constant
Frame rate : 23.976 FPS
Color space : YUV
Chroma subsampling : 4:2:0
Bit depth : 8 bits
Scan type : Progressive
Bits/(Pixel*Frame) : 0.115
Stream size : 1.41 GiB (90%)
Writing library : x264 core 146
Encoding settings : cabac=1 / ref=1 / deblock=1:0:0 / analyse=0x1:0x1 / me=dia / subme=1 / psy=1 / psy_rd=1.00:0.00 / mixed_ref=0 / me_range=16 / chroma_me=1 / trellis=0 / 8x8dct=0 / cqm=0 / deadzone=21,11 / fast_pskip=1 / chroma_qp_offset=0 / threads=3 / lookahead_threads=1 / sliced_threads=0 / nr=0 / decimate=1 / interlaced=0 / bluray_compat=0 / constrained_intra=0 / bframes=3 / b_pyramid=2 / b_adapt=1 / b_bias=0 / direct=1 / weightb=1 / open_gop=0 / weightp=1 / keyint=250 / keyint_min=23 / scenecut=40 / intra_refresh=0 / rc=crf / mbtree=0 / crf=23.0 / qcomp=0.60 / qpmin=0 / qpmax=69 / qpstep=4 / ip_ratio=1.40 / pb_ratio=1.30 / aq=1:1.00
Language : English
Default : No
Forced : No
Audio
ID : 2
Format : AC-3
Format/Info : Audio Coding 3
Codec ID : A_AC3
Duration : 1 h 39 min
Bit rate mode : Constant
Bit rate : 192 kb/s
Channel(s) : 2 channels
Channel positions : Front: L R
Sampling rate : 48.0 kHz
Frame rate : 31.250 FPS (1536 SPF)
Bit depth : 16 bits
Compression mode : Lossy
Stream size : 137 MiB (8%)
Service kind : Complete Main
Default : No
Forced : No
Внимание! Раздача ведётся путём добавления новых серий
Внимание! Раздача ведётся путём добавления новых серий; при каждом добавлении создаётся новый торрент. Чтобы начать докачку новой серии, пользователям необходимо сделать следующее:
(1) остановить скачивание,
(2) удалить старый торрент у себя из клиента (старые серии удалять не надо),
(3) скачать новый торрент и запустить его у себя в клиенте вместо старого, при этом указать клиенту путь в старую папку куда и должно происходить скачивание новых серий.
Ваш клиент при этом должен произвести хеширование (проверку) старой папки (если не производит сам - помогите ему сделать это), и будет докачивать только те серии которых у вас ещё нет. Старые серии при этом не удаляются, а продолжают раздаваться!
Eсли вы уже удалили старые серии, то предотвратить повторную закачку старых серий можно, отжав галочку в соответсвующих местах при запуске нового торрента. По возможности, желательно не удалять старые серии как можно дольше чтобы релизёр не столько продолжал раздавать старые серии, а смог сконцентрироваться на новых.
Скриншоты

[/b]
Автор Bot
Категория Телевизор
InfoHash A5BA707F657C8D3F41C0D04443DB89BECC677D31
Файлы (3)
Показать файлы
Трекера
Показать трекера

    Нет комментариев

Войти на сайт

Статистика

  • Всего торрентов: 92905
  • Объёмом: 555.7 Тб
  • Сидов: 2952677
  • Личеров: 197800