A PHP Error was encountered

Severity: Notice

Message: Trying to get property 'id' of non-object

Filename: controllers/Torrent.php

Line Number: 25

Backtrace:

File: /home/torr/www/application/controllers/Torrent.php
Line: 25
Function: _error_handler

File: /home/torr/www/public/index.php
Line: 317
Function: require_once

Шёпот дьявола / Devil's Whisper (2017) WEBRip 720p | L2 | 2.4 Гб - ToRR.ws

Подождите, загружаю...

Все раздачи Раздачи по тегам Правила Информация Контакты

Шёпот дьявола / Devil's Whisper (2017) WEBRip 720p | L2

Шёпот дьявола / Devil's Whisper (2017) WEBRip 720p | L2

Информация о фильме
Название: Шёпот дьявола
Оригинальное название: Devil's Whisper
Год выхода: 2017
Жанр: Ужасы, триллер, драма
Режиссер: Адам Рипп
В ролях: Люка Ориел, Элисон Фернандез, Маркос А. Ферраез, Луна Майя, Оливия Негрон, Джаспер Полиш, Рик Раванелло и другие
О фильме:
15-летний Алехандро Дурэн стремится стать одним из католических священников. Но когда Алекс обнаруживает таинственную коробку, то невольно освобождает злой дух. Алекс должен найти способ победить этого древнего демона, мучавшего людей с самого начала времён, пока он не уничтожил его и его близких. Шёпот дъявола - фильм ужасов об одержимости, но в его основе лежит психологический триллер о подавленных воспоминаниях.

Страна: США, MD Media, Vega
Продолжительность: 01:25:54
Перевод: Любительский (двухголосый закадровый) | RecentFilms
Файл
Кодек: MPEG-4 AVC/H.264
Качество: WEBRip 720p
Видео: 1280x530, 23,976 fps, ~3822 Kbps, 0.235 bit/pixel
Звук:
Аудио rus: AC3, 48 kHz, 2 ch, 192 Kbps
Субтитры: отсутствуют
Реклама: присутствует
Семпл
MediaInfo:

General
Unique ID : 221265752002313459618397988720683190354 (0xA6763BD6B407F511B5FD8D63EA370852)
Complete name : F:FilmsDevils.Whisper.2017.WEBRip.720p.RecentFilmsDevils.Whisper.2017.WEBRip.720p.RecentFilms.mkv
Format : Matroska
Format version : Version 4 / Version 2
File size : 2.41 GiB
Duration : 1h 25mn
Overall bit rate : 4 016 Kbps
Encoded date : UTC 2017-11-14 20:09:47
Writing application : mkvmerge v7.8.0 ('River Man') 64bit built on Mar 27 2015 16:31:37
Writing library : libebml v1.3.1 + libmatroska v1.4.2
Video
ID : 1
Format : AVC
Format/Info : Advanced Video Codec
Format profile : Main@L3.2
Format settings, CABAC : Yes
Format settings, ReFrames : 3 frames
Codec ID : V_MPEG4/ISO/AVC
Duration : 1h 25mn
Bit rate : 3 822 Kbps
Width : 1 280 pixels
Height : 530 pixels
Display aspect ratio : 2.40:1
Frame rate mode : Constant
Frame rate : 23.976 (24000/1001) fps
Standard : NTSC
Color space : YUV
Chroma subsampling : 4:2:0
Bit depth : 8 bits
Scan type : Progressive
Bits/(Pixel*Frame) : 0.235
Stream size : 2.29 GiB (95%)
Language : English
Default : Yes
Forced : No
Color range : Limited
Color primaries : BT.601 NTSC
Transfer characteristics : BT.601
Matrix coefficients : BT.601
Audio
ID : 2
Format : AC-3
Format/Info : Audio Coding 3
Mode extension : CM (complete main)
Format settings, Endianness : Big
Codec ID : A_AC3
Duration : 1h 25mn
Bit rate mode : Constant
Bit rate : 192 Kbps
Channel(s) : 2 channels
Channel positions : Front: L R
Sampling rate : 48.0 KHz
Frame rate : 31.250 fps (1536 spf)
Compression mode : Lossy
Stream size : 118 MiB (5%)
Default : Yes
Forced : No
Скриншоты



Релиз от: RecentFilms
Автор Bot
Категория Зарубежные фильмы
InfoHash 255972E837209E7EE0D925C85B00C93F79581155
Файлы (1)
Показать файлы
Трекера
Показать трекера
Похожие раздачи
Название Добавлен Размер Сид Лич
Шёпот дьявола / Devil's Whisper (2017) WEBRip | L2 15/11/2017 1.2 Гб 6 4

    Нет комментариев

Войти на сайт

Статистика

  • Всего торрентов: 74836
  • Объёмом: 431.7 Тб
  • Сидов: 2001182
  • Личеров: 174240