Все раздачи Раздачи по тегам Правила Информация Контакты

Слабый удар / Beatless [01-14 из 24] (2018) WEBRip 720p | KANSAI, SHIZA Project

Слабый удар / Beatless [01-14 из 24] (2018) WEBRip 720p | KANSAI, SHIZA Project

Информация о фильме
Название: Слабый удар
Оригинальное название: Beatless
Год выхода: 2018
Жанр: фантастика, драма, романтика
Режиссер: Мидзусима Сэйдзи
Художник: Минэта Ёсими, Окубо Сюити, Томоно Каёко, Норисуэ Михо, Такасусуки Ами
В ролях: Ёсинага Такуто, Тояма Нао, Томиока Мисако, Игараси Хироми, Симодзи Сино, Амамия Сора, Исикава Кайто, Ямасита Дайки, Оно Саки, Сатакэ Уки, Вакай Юки
О фильме:
В 2105 году стали популярны гуманоидные андроиды Г.И.Э, которые вошли в обиход. Обществом они рассматриваются как «личная игрушка», которую можно использовать как захочется. Многих это устраивает, но есть и те, кто считает иначе. Арато Эндо, в отличие от своих друзей, думает, что андроиды достойны большего, чем равняться «вещи».Как-то ночью Арато становится свидетелем необъяснимого: техника начинает сходить с ума, а Г.И.Э просто уничтожаются. Во время этого хаоса парень находит удивительным образом уцелевшего андроида под кодовым именем — Лация. После неожиданной встречи жизнь Арато полностью меняется и открывает глаза на правду...

World Art | MAL
Страна: Япония
Студия: Studio Barcelona
Продолжительность: 00:24:30
Язык: Русский, Японский
Перевод: Любительский (многоголосый, закадровый)
Файл
Качество: WEBRip
Формат: MKV
Кодек: H.264
Аудио кодек: AAC
Видео: 1280x720, 23.976 fps, 1400 kbps
Аудио RUS: 48.0 kHz, AAC, 2 ch, 192 kbps - KANSAI
Аудио RUS: 48.0 kHz, AAC, 2 ch, 192 kbps - SHIZA Project
Аудио JAP: 48.0 kHz, AAC, 2 ch, 124 kbps
Субтитры: русские (встроенные полный перевод, ASS) - SovetRomantica
Озвучка
Релиз от:
Озвучивание: Snowly, Nate, Bast, Pandora, Abe
Перевод: Sovetromantica (01), MedusaSub (02-24)
Тайминг и работа со звуком: _Casper_
Скриншоты

Список серий
01. Контракт
02. Аналоговый взлом
03. Ты будешь моей
04. Автоматический мир
05. Орудие внешней поддержки
05,5. Перерыв_01
06. Деревня Хигинса
07. Парень знакомиться с порнографией
08. Пробуждение спящей красавицы
09. Моё местонахождение
09,5. Перерыв_02
10. Жилище и окрестности
11. Игра в Дистопию
12. Сон человека
13. Внутренняя молитва
14. Ответ, чтобы выжить
MediaInfo
General
Format : Matroska
Format version : Version 4 / Version 2
File size : 325 MiB
Duration : 24 min
Overall bit rate mode : Variable
Overall bit rate : 1 856 kb/s
Encoded date : UTC 2018-06-12 09:27:30
Writing application : mkvmerge v8.3.0 ('Over the Horizon') 64bit
Writing library : libebml v1.3.1 + libmatroska v1.4.2
Attachments : arial.ttf / ARIALNB.TTF / cambriab.ttf / cambriaz.ttf / stylo.ttf / TYPEW6.TTF
Video
ID : 1
Format : AVC
Format/Info : Advanced Video Codec
Format profile : High@L3.1
Format settings, CABAC : Yes
Format settings, ReFrames : 5 frames
Codec ID : V_MPEG4/ISO/AVC
Duration : 24 min
Bit rate mode : Variable
Bit rate : 1 358 kb/s
Maximum bit rate : 4 500 kb/s
Width : 1 280 pixels
Height : 720 pixels
Display aspect ratio : 16:9
Frame rate mode : Constant
Frame rate : 23.976 (24000/1001) FPS
Color space : YUV
Chroma subsampling : 4:2:0
Bit depth : 8 bits
Scan type : Progressive
Bits/(Pixel*Frame) : 0.061
Stream size : 237 MiB (73%)
Default : Yes
Forced : No
Color range : Limited
Color primaries : BT.709
Transfer characteristics : BT.709
Matrix coefficients : BT.709
Audio #1
ID : 2
Format : AAC
Format/Info : Advanced Audio Codec
Format profile : LC
Codec ID : A_AAC
Duration : 24 min
Bit rate : 192 kb/s
Channel(s) : 2 channels
Channel positions : Front: L R
Sampling rate : 48.0 kHz
Frame rate : 46.875 FPS (1024 spf)
Compression mode : Lossy
Stream size : 33.1 MiB (10%)
Title : KANSAI
Language : Russian
Default : Yes
Forced : No
Audio #2
ID : 3
Format : AAC
Format/Info : Advanced Audio Codec
Format profile : LC
Codec ID : A_AAC
Duration : 24 min
Bit rate : 162 kb/s
Channel(s) : 2 channels
Channel positions : Front: L R
Sampling rate : 48.0 kHz
Frame rate : 46.875 FPS (1024 spf)
Compression mode : Lossy
Delay relative to video : 2 ms
Stream size : 28.4 MiB (9%)
Title : SHIZA Project
Language : Russian
Default : No
Forced : No
Audio #3
ID : 4
Format : AAC
Format/Info : Advanced Audio Codec
Format profile : LC
Codec ID : A_AAC
Duration : 24 min
Bit rate : 125 kb/s
Channel(s) : 2 channels
Channel positions : Front: L R
Sampling rate : 48.0 kHz
Frame rate : 46.875 FPS (1024 spf)
Compression mode : Lossy
Stream size : 21.9 MiB (7%)
Title : Original
Language : Japanese
Default : No
Forced : No
Text
ID : 5
Format : ASS
Codec ID : S_TEXT/ASS
Codec ID/Info : Advanced Sub Station Alpha
Duration : 24 min
Bit rate : 129 b/s
Count of elements : 274
Compression mode : Lossless
Stream size : 23.2 KiB (0%)
Title : Полные субтитры
Language : Russian
Default : Yes
Forced : No
Раздача ведется путем добавления новых серий
Когда раздача ведётся путём добавления новых серий, при каждом добавлении создётся новый торрент. Чтобы начать докачку новой серии, пользователям необходимо сделать следующее:
(1) остановить скачивание,
(2) удалить старый торрент у себя из клиента (старые серии удалять не надо),
(3) скачать новый торрент и запустить его у себя в клиенте вместо старого, при этом указать клиенту путь в старую папку, куда и должно происходить скачивание новых серий.
Ваш клиент при этом должен произвести хеширование (проверку) старой папки (если не производит сам - помогите ему сделать это), и будет докачивать только те серии, которых у вас ещё нет. Старые серии при этом не удаляются, а продолжают раздаваться!
Eсли вы уже удалили старые серии, то предотвратить повторную закачку старых серий можно, отжав галочку в соответсвующих местах при запуске нового торрента. По возможности, желательно не удалять старые серии как можно дольше, чтобы релизёр не столько продолжал раздавать старые серии, а смог сконцентрироваться на новых.
Автор Bot
Категория Аниме
InfoHash ACBB78F1E5453E5D02F962E4F6E3CFE1A78A93BC
Файлы (14)
Показать файлы
Трекера
Показать трекера
Похожие раздачи
Название Добавлен Размер Сид Лич
Слабый удар / Beatless [01-09 из 24] (2018) WEBRip 720p | SHIZA Project 26/03/2018 2.3 Гб 1 0

    Нет комментариев

Войти на сайт

Статистика

  • Всего торрентов: 80775
  • Объёмом: 476.9 Тб
  • Сидов: 2228060
  • Личеров: 167519