Все раздачи Раздачи по тегам Правила Информация Контакты

Вечеринка / The Party (2018) HDRip-AVC ivanes20031987 |

Вечеринка / The Party (2018) HDRip-AVC ivanes20031987 |

Информация о фильме
Название: Вечеринка
Оригинальное название: The Party
Год выхода: 2018
Жанр: драма, комедия
Режиссер: Салли Поттер
В ролях: Патришия Кларксон, Бруно Ганц, Черри Джонс, Эмили Мортимер, Киллиан Мёрфи, Кристин Скотт Томас, Тимоти Сполл
О фильме:
Дома у Билла и Джэнет собираются старые друзья — посидеть, выпить вина, поделиться новостями, тем более, что в жизни всех участников встречи происходит что-то интересное. Вечер удался бы на славу, но тут Билл сделал такое заявление, что настроение у всех резко испортилось. Теперь старые друзья уже готовы вцепиться друг другу в глотку, как в переносном, так и во вполне прямом смысле.
Страна: Великобритания
Продолжительность: 01:10:42
Перевод: Профессиональный (многоголосый закадровый) Jaskier
Файл
Кодек: H.264
Качество: HDRip-AVC / BDRip 1080p
Видео: MPEG-4 AVC, 1024x430(2.40:1), 24.000 fps, ~2421 kbps avg, 0.229 bit/pixel
Звук: 48 kHz, AC3 Dolby Digital, 3/2 (L,C,R,l,r) + LFE ch, ~448 kbps avg
Субтитры: Нет
Семпл
MediaInfo

Complete name : D:РаздачаВечеринка (2017) HDRip-AVC_ivanes20031987.mkv
Format : Matroska
Format version : Version 2
File size : 1.45 GiB
Duration : 1 h 10 min
Overall bit rate : 2 927 kb/s
Movie name : Вечеринка (2017) HDRip-AVC_ivanes20031987
Encoded date : UTC 2018-06-12 15:35:26
Writing application : mkvmerge v4.4.0 ('Die Wiederkehr') сборка от Jan 3 2011 21:40:45
Writing library : libebml v1.0.0 + libmatroska v1.0.0
Cover : Yes
Attachments : cover.png
Video
ID : 1
Format : AVC
Format/Info : Advanced Video Codec
Format profile : High@L4.1
Format settings, CABAC : Yes
Format settings, RefFrames : 14 frames
Codec ID : V_MPEG4/ISO/AVC
Duration : 1 h 10 min
Bit rate : 2 421 kb/s
Width : 1 024 pixels
Height : 430 pixels
Display aspect ratio : 2.40:1
Frame rate mode : Constant
Frame rate : 24.000 FPS
Color space : YUV
Chroma subsampling : 4:2:0
Bit depth : 8 bits
Scan type : Progressive
Bits/(Pixel*Frame) : 0.229
Stream size : 1.20 GiB (83%)
Title : Rip by ivanes20031987
Writing library : x264 core 155 r2901 7d0ff22
Encoding settings : cabac=1 / ref=14 / deblock=1:-3:-3 / analyse=0x3:0x113 / me=umh / subme=10 / psy=1 / psy_rd=1.00:0.00 / mixed_ref=1 / me_range=32 / chroma_me=1 / trellis=2 / 8x8dct=1 / cqm=0 / deadzone=21,11 / fast_pskip=0 / chroma_qp_offset=-2 / threads=12 / lookahead_threads=3 / sliced_threads=0 / nr=0 / decimate=0 / interlaced=0 / bluray_compat=0 / constrained_intra=0 / bframes=14 / b_pyramid=2 / b_adapt=2 / b_bias=0 / direct=1 / weightb=1 / open_gop=0 / weightp=2 / keyint=240 / keyint_min=24 / scenecut=40 / intra_refresh=0 / rc_lookahead=60 / rc=crf / mbtree=0 / crf=16.7 / qcomp=0.60 / qpmin=0 / qpmax=69 / qpstep=4 / vbv_maxrate=50000 / vbv_bufsize=62500 / crf_max=0.0 / nal_hrd=none / filler=0 / ip_ratio=1.40 / pb_ratio=1.30 / aq=1:1.00
Default : Yes
Forced : No
Audio
ID : 2
Format : AC-3
Format/Info : Audio Coding 3
Format settings, Endianness : Big
Codec ID : A_AC3
Duration : 1 h 10 min
Bit rate mode : Constant
Bit rate : 448 kb/s
Channel(s) : 6 channels
Channel positions : Front: L C R, Side: L R, LFE
Sampling rate : 48.0 kHz
Frame rate : 31.250 FPS (1536 SPF)
Bit depth : 16 bits
Compression mode : Lossy
Stream size : 227 MiB (15%)
Title : Jaskier
Language : Russian
Service kind : Complete Main
Default : Yes
Forced : No

Скриншоты
Автор Bot
Категория Зарубежные фильмы
InfoHash A581AA39D4FA981815E55F4F563BD88031D66518
Файлы (1)
Показать файлы
Трекера
Показать трекера
Похожие раздачи

    Нет комментариев

Войти на сайт

Статистика

  • Всего торрентов: 92228
  • Объёмом: 551.7 Тб
  • Сидов: 2981094
  • Личеров: 184128