Все раздачи Раздачи по тегам Правила Информация Контакты

Код 211 / 211 (2018) WEB-DLRip-AVC ivanes20031987 | MUZOBOZ

Код 211 / 211 (2018) WEB-DLRip-AVC ivanes20031987 | MUZOBOZ

Информация о фильме
Название: Код 211
Оригинальное название: 211
Год выхода: 2018
Жанр: боевик, драма, история
Режиссер: Йорк Шеклтон
В ролях: Николас Кейдж, Софи Скелтон, Майкл Рейни мл., Дуэйн Камерон, Уэстон Кейдж, Кори Хардрикт, Ори Феффер, Марк Баснайт, Аманда Серни, Майкл Беллисарио
О фильме:
Полицейский код 211 — ограбление банка. Такой сигнал получает офицер Чандлер во время своей смены. Он бросается на место событий, чтобы не позволить преступникам сбежать с добычей.
Страна: США
Продолжительность: 01:27:05
Перевод: Любительский (многоголосый закадровый) @MUZOBOZ@
Файл
Кодек: H.264
Качество: WEB-DLRip-AVC / WEB-DL 1080p
Видео: MPEG-4 AVC, 998x538 (1.85:1), 23.976 fps, ~2059 kbps avg, 0.160 bit/pixel
Звук: 48 kHz, AC3 Dolby Digital, 2/0 (L,R) ch, ~192 kbps avg
Субтитры: Нет
Семпл
MediaInfo

Complete name : D:РаздачаКод 211 (2018) WEB-DLRip-AVC_ivanes20031987.mkv
Format : Matroska
Format version : Version 2
File size : 1.40 GiB
Duration : 1 h 27 min
Overall bit rate : 2 297 kb/s
Movie name : Код 211 (2018) WEB-DLRip-AVC_ivanes20031987
Encoded date : UTC 2018-06-13 06:53:35
Writing application : mkvmerge v4.4.0 ('Die Wiederkehr') сборка от Jan 3 2011 21:40:45
Writing library : libebml v1.0.0 + libmatroska v1.0.0
Cover : Yes
Attachments : cover.jpg
Video
ID : 1
Format : AVC
Format/Info : Advanced Video Codec
Format profile : High@L4.1
Format settings, CABAC : Yes
Format settings, RefFrames : 14 frames
Codec ID : V_MPEG4/ISO/AVC
Duration : 1 h 27 min
Bit rate : 2 059 kb/s
Width : 998 pixels
Height : 538 pixels
Display aspect ratio : 1.85:1
Frame rate mode : Constant
Frame rate : 23.976 (24000/1001) FPS
Color space : YUV
Chroma subsampling : 4:2:0
Bit depth : 8 bits
Scan type : Progressive
Bits/(Pixel*Frame) : 0.160
Stream size : 1.25 GiB (90%)
Title : Rip by ivanes20031987
Writing library : x264 core 155 r2901 7d0ff22
Encoding settings : cabac=1 / ref=14 / deblock=1:-3:-3 / analyse=0x3:0x113 / me=umh / subme=10 / psy=1 / psy_rd=1.00:0.00 / mixed_ref=1 / me_range=32 / chroma_me=1 / trellis=2 / 8x8dct=1 / cqm=0 / deadzone=21,11 / fast_pskip=0 / chroma_qp_offset=-2 / threads=12 / lookahead_threads=3 / sliced_threads=0 / nr=0 / decimate=0 / interlaced=0 / bluray_compat=0 / constrained_intra=0 / bframes=14 / b_pyramid=2 / b_adapt=2 / b_bias=0 / direct=1 / weightb=1 / open_gop=0 / weightp=2 / keyint=240 / keyint_min=23 / scenecut=40 / intra_refresh=0 / rc_lookahead=60 / rc=crf / mbtree=0 / crf=17.9 / qcomp=0.60 / qpmin=0 / qpmax=69 / qpstep=4 / vbv_maxrate=50000 / vbv_bufsize=62500 / crf_max=0.0 / nal_hrd=none / filler=0 / ip_ratio=1.40 / pb_ratio=1.30 / aq=1:1.00
Default : Yes
Forced : No
Audio
ID : 2
Format : AC-3
Format/Info : Audio Coding 3
Format settings, Endianness : Big
Codec ID : A_AC3
Duration : 1 h 27 min
Bit rate mode : Constant
Bit rate : 192 kb/s
Channel(s) : 2 channels
Channel positions : Front: L R
Sampling rate : 48.0 kHz
Frame rate : 31.250 FPS (1536 SPF)
Bit depth : 16 bits
Compression mode : Lossy
Stream size : 120 MiB (8%)
Title : @MUZOBOZ@
Language : Russian
Service kind : Complete Main
Default : Yes
Forced : No

Скриншоты
Автор Bot
Категория Зарубежные фильмы
InfoHash 572B88659CCE4E36584A84551C13360DA9F2D63C
Файлы (1)
Показать файлы
Трекера
Показать трекера
Похожие раздачи

    Нет комментариев

Войти на сайт

Статистика

  • Всего торрентов: 92311
  • Объёмом: 552.0 Тб
  • Сидов: 2972578
  • Личеров: 186811